Pearl Jam – Ten




[Total: 0    Average: 0/5]

Artist: Pearl Jam
Year: 1991
Genre: Rock
Notes: Discogs
Add. Notes:
Cover incl.: No
Encoder: APE
Bitrate: ~900 kBit/s (44.1 kHz/16 Bit/s)
Log & Cue incl.: Yes
Size: 339,47 MB
Password: “slam” (without ” “)


All Downloads/Hosters are compatible

Download 1
Share-online.biz
KatFile.com
Rapidgator.net
Download 2
Share-online.biz
KatFile.com
Rapidgator.net

Tracklist:

1 - Once - 3:51
2 - Even Flow - 4:53
3 - Alive - 5:41
4 - Why Go - 3:19
5 - Black - 5:43
6 - Jeremy - 5:19
7 - Oceans - 2:41
8 - Porch - 3:30
9 - Garden - 4:58
10 - Deep - 4:18
11.1 - Release - 5:04
11.2 - (silence) - 0:14
11.3 - Master/Slave - 3:56

EAC-Log, CUE-Sheed & NFO:

Click to open spoiler
Отчёт EAC об извлечении, выполненном 25. октября 2007, 20:11 для диска:
Pearl Jam / Ten

Дисковод: HL-DT-STRW/DVD GCC-4480B Adapter: 1 ID: 0
Режим чтения: Точный (C2: нет, Точный поток: да, Отключение кэша: да)
Коррекция смещения при чтении: 6
Экстрачтение областей Lead-in и Lead-out : Нет

Выходной формат: Внутренние WAV-операции
44.100 Гц; 16 бит; стерео

Другие параметры:
Заполнение пропущенных сэмплов тишиной : Да
Удаление блоков с тишиной в начале и конце : Нет
‘Родной’ Win32-интерфейс для Win NT/2000

Статус диапазона и ошибки
Выбранный диапазон
Имя файла C:\Documents and Settings\борис\Мои документы\образы с фирменных музык. дисков\Pearl Jam Ten\Pearl Jam Ten.wav

Пиковый уровень 100.0 %
Качество диапазона 100.0 %
CRC 8A855851
Копирование… OK

Ошибок не произошло

Конец отчёта

PERFORMER “Pearl Jam”
TITLE “Ten”
FILE “Pearl Jam Ten.wav” WAVE
TRACK 01 AUDIO
TITLE “Once”
PERFORMER “Pearl Jam”
INDEX 01 00:00:00
TRACK 02 AUDIO
TITLE “Even Flow”
PERFORMER “Pearl Jam”
INDEX 01 03:51:50
TRACK 03 AUDIO
TITLE “Alive”
PERFORMER “Pearl Jam”
INDEX 01 08:45:22
TRACK 04 AUDIO
TITLE “Why Go”
PERFORMER “Pearl Jam”
INDEX 01 14:26:22
TRACK 05 AUDIO
TITLE “Black”
PERFORMER “Pearl Jam”
INDEX 01 17:46:35
TRACK 06 AUDIO
TITLE “Jeremy”
PERFORMER “Pearl Jam”
INDEX 01 23:30:15
TRACK 07 AUDIO
TITLE “Oceans”
PERFORMER “Pearl Jam”
INDEX 01 28:49:07
TRACK 08 AUDIO
TITLE “Porch”
PERFORMER “Pearl Jam”
INDEX 01 31:31:15
TRACK 09 AUDIO
TITLE “Garden”
PERFORMER “Pearl Jam”
INDEX 01 35:01:47
TRACK 10 AUDIO
TITLE “Deep”
PERFORMER “Pearl Jam”
INDEX 01 40:00:52
TRACK 11 AUDIO
TITLE “Release”
PERFORMER “Pearl Jam”
INDEX 01 44:18:70


Spread the Download

Leave a Reply

Your email address will not be published. Required fields are marked *

Enter the text from the image below
 

This site uses Akismet to reduce spam. Learn how your comment data is processed.