Pearl Jam – Riot Act (Japanese Edition)




Artist: Pearl Jam
Year: 2002
Genre: Rock
Notes: Discogs
Add. Notes: Japanese Edition
Cover incl.: Yes
Encoder: FLAC
Bitrate: ~900 kBit/s (44.1 kHz/16 Bit/s)
Log & Cue incl.: Yes
Size: 811 MB
Password: “slam” (without ” “)


All Downloads/Hosters are compatible

Download 1
KatFile.com
Rapidgator.net
Turbobit.net
FileFactory.com
Download 2
KatFile.com
Rapidgator.net
Turbobit.net
FileFactory.com

Tracklist:

1. Can't Keep  
2. Save You  
3. Love Boat Captain  
4. Cropduster  
5. Ghost  
6. I Am Mine  
7. Thumbing My Way  
8. You Are  
9. Get Right  
10. Green Disease  
11. Help Help  
12. Bu$hleaguer  
13. 1/2 Full  
14. Arc  
15. All Or None

EAC-Log, CUE-Sheed & NFO:

Click to open spoiler
Exact Audio Copy V0.99 prebeta 5 from 4. May 2009

EAC extraction logfile from 16. March 2010, 16:14

Pearl Jam / Riot Act

Used drive : HL-DT-STDVDRAM GSA-H42N Adapter: 0 ID: 0

Read mode : Secure
Utilize accurate stream : Yes
Defeat audio cache : Yes
Make use of C2 pointers : No

Read offset correction : 667
Overread into Lead-In and Lead-Out : No
Fill up missing offset samples with silence : Yes
Delete leading and trailing silent blocks : No
Null samples used in CRC calculations : Yes
Used interface : Native Win32 interface for Win NT & 2000
Gap handling : Appended to previous track

Used output format : User Defined Encoder
Selected bitrate : 128 kBit/s
Quality : High
Add ID3 tag : No
Command line compressor : C:\Program Files\Exact Audio Copy\Flac\flac.exe
Additional command line options : -8 -V -T “ARTIST=%a” -T “TITLE=%t” -T “ALBUM=%g” -T “DATE=%y” -T “TRACKNUMBER=%n” -T “GENRE=%m” -T “COMMENT=EAC FLAC -8” %s

TOC of the extracted CD

Track | Start | Length | Start sector | End sector
———————————————————
1 | 0:00.00 | 3:39.25 | 0 | 16449
2 | 3:39.25 | 3:50.02 | 16450 | 33701
3 | 7:29.27 | 4:36.28 | 33702 | 54429
4 | 12:05.55 | 3:51.60 | 54430 | 71814
5 | 15:57.40 | 3:15.02 | 71815 | 86441
6 | 19:12.42 | 3:35.48 | 86442 | 102614
7 | 22:48.15 | 4:10.10 | 102615 | 121374
8 | 26:58.25 | 4:30.57 | 121375 | 141681
9 | 31:29.07 | 2:38.38 | 141682 | 153569
10 | 34:07.45 | 2:41.12 | 153570 | 165656
11 | 36:48.57 | 3:35.00 | 165657 | 181781
12 | 40:23.57 | 3:57.30 | 181782 | 199586
13 | 44:21.12 | 4:10.68 | 199587 | 218404
14 | 48:32.05 | 1:05.37 | 218405 | 223316
15 | 49:37.42 | 4:37.43 | 223317 | 244134

Track 1

Filename D:\Pearl Jam\xPearl Jam – 2002 – Riot Act\01 – Can’t Keep.wav

Pre-gap length 0:00:02.00

Peak level 98.8 %
Track quality 100.0 %
Test CRC ADDF84DD
Copy CRC ADDF84DD
Cannot be verified as accurate (confidence 128) [E3D7CC50], AccurateRip returned [07CFE22D]
Copy OK

Track 2

Filename D:\Pearl Jam\xPearl Jam – 2002 – Riot Act\02 – Save You.wav

Peak level 98.8 %
Track quality 100.0 %
Test CRC 7AE40CE3
Copy CRC 7AE40CE3
Cannot be verified as accurate (confidence 121) [9E381FCF], AccurateRip returned [08C62B4C]
Copy OK

Track 3

Filename D:\Pearl Jam\xPearl Jam – 2002 – Riot Act\03 – Love Boat Captain.wav

Peak level 98.8 %
Track quality 100.0 %
Test CRC 6CB117C3
Copy CRC 6CB117C3
Cannot be verified as accurate (confidence 120) [2DCBB633], AccurateRip returned [2C663F6C]
Copy OK

Track 4

Filename D:\Pearl Jam\xPearl Jam – 2002 – Riot Act\04 – Cropduster.wav

Peak level 98.8 %
Track quality 100.0 %
Test CRC 2970C518
Copy CRC 2970C518
Cannot be verified as accurate (confidence 121) [183CDB20], AccurateRip returned [743D611A]
Copy OK

Track 5

Filename D:\Pearl Jam\xPearl Jam – 2002 – Riot Act\05 – Ghost.wav

Peak level 98.8 %
Track quality 100.0 %
Test CRC EF6FA681
Copy CRC EF6FA681
Cannot be verified as accurate (confidence 129) [E25279C2], AccurateRip returned [072C1965]
Copy OK

Track 6

Filename D:\Pearl Jam\xPearl Jam – 2002 – Riot Act\06 – I Am Mine.wav

Pre-gap length 0:00:00.73

Peak level 98.8 %
Track quality 100.0 %
Test CRC 7F71506B
Copy CRC 7F71506B
Cannot be verified as accurate (confidence 122) [1D05BEF7], AccurateRip returned [2E6CE5A2]
Copy OK

Track 7

Filename D:\Pearl Jam\xPearl Jam – 2002 – Riot Act\07 – Thumbing My Way.wav

Pre-gap length 0:00:00.30

Peak level 98.8 %
Track quality 100.0 %
Test CRC 7E6AF513
Copy CRC 7E6AF513
Cannot be verified as accurate (confidence 121) [BA0E4A27], AccurateRip returned [E533F72D]
Copy OK

Track 8

Filename D:\Pearl Jam\xPearl Jam – 2002 – Riot Act\08 – You Are.wav

Pre-gap length 0:00:01.97

Peak level 98.8 %
Track quality 100.0 %
Test CRC 2E5B3003
Copy CRC 2E5B3003
Cannot be verified as accurate (confidence 122) [F95FF27F], AccurateRip returned [53F630A0]
Copy OK

Track 9

Filename D:\Pearl Jam\xPearl Jam – 2002 – Riot Act\09 – Get Right.wav

Pre-gap length 0:00:02.06

Peak level 98.8 %
Track quality 100.0 %
Test CRC C6FB1722
Copy CRC C6FB1722
Cannot be verified as accurate (confidence 128) [0A4A1D70], AccurateRip returned [0701AFB3]
Copy OK

Track 10

Filename D:\Pearl Jam\xPearl Jam – 2002 – Riot Act\10 – Green Disease.wav

Peak level 98.8 %
Track quality 100.0 %
Test CRC 759C89CB
Copy CRC 759C89CB
Cannot be verified as accurate (confidence 122) [15863B40], AccurateRip returned [F011818C]
Copy OK

Track 11

Filename D:\Pearl Jam\xPearl Jam – 2002 – Riot Act\11 – Help Help.wav

Peak level 98.8 %
Track quality 100.0 %
Test CRC 9CB40150
Copy CRC 9CB40150
Cannot be verified as accurate (confidence 127) [DDEE1D83], AccurateRip returned [CCA76F2A]
Copy OK

Track 12

Filename D:\Pearl Jam\xPearl Jam – 2002 – Riot Act\12 – Bushleaguer.wav

Pre-gap length 0:00:00.22

Peak level 98.8 %
Track quality 100.0 %
Test CRC 6CD38A9C
Copy CRC 6CD38A9C
Cannot be verified as accurate (confidence 120) [34B5D329], AccurateRip returned [29961CE9]
Copy OK

Track 13

Filename D:\Pearl Jam\xPearl Jam – 2002 – Riot Act\13 – Half Full.wav

Peak level 98.8 %
Track quality 100.0 %
Test CRC A73704D4
Copy CRC A73704D4
Cannot be verified as accurate (confidence 120) [25AF060A], AccurateRip returned [F0A00697]
Copy OK

Track 14

Filename D:\Pearl Jam\xPearl Jam – 2002 – Riot Act\14 – Arc.wav

Peak level 98.8 %
Track quality 100.0 %
Test CRC 83E4E362
Copy CRC 83E4E362
Cannot be verified as accurate (confidence 121) [33313D6B], AccurateRip returned [CAA0A9A5]
Copy OK

Track 15

Filename D:\Pearl Jam\xPearl Jam – 2002 – Riot Act\15 – All Or None.wav

Pre-gap length 0:00:00.26

Peak level 98.8 %
Track quality 100.0 %
Test CRC 848CAF64
Copy CRC 848CAF64
Cannot be verified as accurate (confidence 120) [6CCCF486], AccurateRip returned [5110053F]
Copy OK

No tracks could be verified as accurate
You may have a different pressing from the one(s) in the database

No errors occurred

End of status report

REM GENRE Rock
REM DATE 2002
REM DISCID C70CB70F
REM COMMENT “ExactAudioCopy v0.99pb5”
PERFORMER “Pearl Jam”
TITLE “Riot Act”
FILE “01 – Can’t Keep.wav” WAVE
TRACK 01 AUDIO
TITLE “Can’t Keep”
PERFORMER “Pearl Jam”
INDEX 01 00:00:00
FILE “02 – Save You.wav” WAVE
TRACK 02 AUDIO
TITLE “Save You”
PERFORMER “Pearl Jam”
INDEX 01 00:00:00
FILE “03 – Love Boat Captain.wav” WAVE
TRACK 03 AUDIO
TITLE “Love Boat Captain”
PERFORMER “Pearl Jam”
INDEX 01 00:00:00
FILE “04 – Cropduster.wav” WAVE
TRACK 04 AUDIO
TITLE “Cropduster”
PERFORMER “Pearl Jam”
INDEX 01 00:00:00
FILE “05 – Ghost.wav” WAVE
TRACK 05 AUDIO
TITLE “Ghost”
PERFORMER “Pearl Jam”
INDEX 01 00:00:00
TRACK 06 AUDIO
TITLE “I Am Mine”
PERFORMER “Pearl Jam”
INDEX 00 03:14:22
FILE “06 – I Am Mine.wav” WAVE
INDEX 01 00:00:00
TRACK 07 AUDIO
TITLE “Thumbing My Way”
PERFORMER “Pearl Jam”
INDEX 00 03:35:25
FILE “07 – Thumbing My Way.wav” WAVE
INDEX 01 00:00:00
TRACK 08 AUDIO
TITLE “You Are”
PERFORMER “Pearl Jam”
INDEX 00 04:08:12
FILE “08 – You Are.wav” WAVE
INDEX 01 00:00:00
TRACK 09 AUDIO
TITLE “Get Right”
PERFORMER “Pearl Jam”
INDEX 00 04:28:52
FILE “09 – Get Right.wav” WAVE
INDEX 01 00:00:00
FILE “10 – Green Disease.wav” WAVE
TRACK 10 AUDIO
TITLE “Green Disease”
PERFORMER “Pearl Jam”
INDEX 01 00:00:00
FILE “11 – Help Help.wav” WAVE
TRACK 11 AUDIO
TITLE “Help Help”
PERFORMER “Pearl Jam”
INDEX 01 00:00:00
TRACK 12 AUDIO
TITLE “Bushleaguer”
PERFORMER “Pearl Jam”
INDEX 00 03:34:58
FILE “12 – Bushleaguer.wav” WAVE
INDEX 01 00:00:00
FILE “13 – Half Full.wav” WAVE
TRACK 13 AUDIO
TITLE “Half Full”
PERFORMER “Pearl Jam”
INDEX 01 00:00:00
FILE “14 – Arc.wav” WAVE
TRACK 14 AUDIO
TITLE “Arc”
PERFORMER “Pearl Jam”
INDEX 01 00:00:00
TRACK 15 AUDIO
TITLE “All Or None”
PERFORMER “Pearl Jam”
INDEX 00 01:05:17
FILE “15 – All Or None.wav” WAVE
INDEX 01 00:00:00


Leave a Reply

Your email address will not be published. Required fields are marked *

Enter the text from the image below
 

This site uses Akismet to reduce spam. Learn how your comment data is processed.