Pearl Jam – Rearviewmirror (Greatest Hits 1991-2003)




Artist: Pearl Jam
Year: 2004
Genre: Rock
Notes: Discogs
Add. Notes:
Cover incl.: Yes
Encoder: FLAC
Bitrate: ~1000 kBit/s (44.1 kHz/16 Bit/s)
Log & Cue incl.: Yes
Size: 1033,73 MB
Password: “slam” (without ” “)


All Downloads/Hosters are compatible

Download 1
Turbobit.net
KatFile.com
Rapidgator.net
NitroFlare.com
Download 2
Turbobit.net
KatFile.com
Rapidgator.net
NitroFlare.com

Tracklist:

Up Side
1-01 - Once - 3:16
1-02 - Alive - 5:42
1-03 - Even Flow - 5:03
1-04 - Jeremy - 5:20
1-05 - State Of Love And Trust - 3:43
1-06 - Animal - 2:47
1-07 - Go - 3:12
1-08 - Dissident - 3:34
1-09 - Rearviewmirror - 4:44
1-10 - Spin The Black Circle - 2:49
1-11 - Corduroy - 4:39
1-12 - Not For You - 5:53
1-13 - I Got ID - 4:51
1-14 - Hail Hail - 3:44
1-15 - Do The Evolution - 3:52
1-16 - Save You - 3:55

Down Side
2-01 - Black - 5:39
2-02 - Breath - 5:24
2-03 - Daughter - 3:56
2-04 - Elderly Woman Behind The Counter In A Small 
Town - 3:15
2-05 - Immortality - 5:12
2-06 - Betterman - 4:28
2-07 - Nothingman - 4:34
2-08 - Who You Are - 3:53
2-09 - Off He Goes - 6:00
2-10 - Given To Fly - 4:00
2-11 - Wishlist - 3:26
2-12 - Last Kiss - 3:17
2-13 - Nothing As It Seems - 5:21
2-14 - Light Years - 5:10
2-15 - I Am Mine - 3:36
2-16 - Man Of The Hour - 3:45
2-17 - Yellow Ledbetter - 5:03

EAC-Log, CUE-Sheed & NFO:

Click to open spoiler
Exact Audio Copy V1.0 beta 1 from 15. November 2010

EAC extraction logfile from 25. December 2010, 22:30

Pearl Jam / Rearviewmirror (Greatest Hits 1991-2003) Disc 1

Used drive : TSSTcorpCDDVDW SH-S222A Adapter: 0 ID: 0

Read mode : Secure
Utilize accurate stream : Yes
Defeat audio cache : Yes
Make use of C2 pointers : No

Read offset correction : 6
Overread into Lead-In and Lead-Out : No
Fill up missing offset samples with silence : Yes
Delete leading and trailing silent blocks : No
Null samples used in CRC calculations : Yes
Used interface : Native Win32 interface for Win NT & 2000
Gap handling : Appended to previous track

Used output format : User Defined Encoder
Selected bitrate : 1024 kBit/s
Quality : High
Add ID3 tag : No
Command line compressor : C:\Program Files (x86)\Exact Audio Copy\FLAC\FLAC.EXE
Additional command line options : -8 -V -T “ARTIST=%a” -T “TITLE=%t” -T “ALBUM=%g” -T “DATE=%y” -T “TRACKNUMBER=%n” -T “TOTALTRACKS=%x” -T “GENRE=%m” -T “COMMENT=EAC V1.0 beta 1, Secure Mode, Test & Copy, AccurateRip, FLAC -8” %s

TOC of the extracted CD

Track | Start | Length | Start sector | End sector
———————————————————
1 | 0:00.00 | 3:16.70 | 0 | 14769
2 | 3:16.70 | 5:42.60 | 14770 | 40479
3 | 8:59.55 | 5:03.50 | 40480 | 63254
4 | 14:03.30 | 5:20.65 | 63255 | 87319
5 | 19:24.20 | 3:43.60 | 87320 | 104104
6 | 23:08.05 | 2:47.47 | 104105 | 116676
7 | 25:55.52 | 3:12.70 | 116677 | 131146
8 | 29:08.47 | 3:34.60 | 131147 | 147256
9 | 32:43.32 | 4:44.00 | 147257 | 168556
10 | 37:27.32 | 2:49.38 | 168557 | 181269
11 | 40:16.70 | 4:39.20 | 181270 | 202214
12 | 44:56.15 | 5:53.50 | 202215 | 228739
13 | 50:49.65 | 4:51.67 | 228740 | 250631
14 | 55:41.57 | 3:44.00 | 250632 | 267431
15 | 59:25.57 | 3:52.35 | 267432 | 284866
16 | 63:18.17 | 3:55.10 | 284867 | 302501

Track 1

Filename E:\Pearl Jam\2004 – Rearviewmirror (Greatest Hits 1991-2003) Disc 1\01 – Once.wav

Pre-gap length 0:00:02.00

Peak level 98.8 %
Extraction speed 4.7 X
Track quality 100.0 %
Test CRC 7B5B1948
Copy CRC 7B5B1948
Accurately ripped (confidence 200) [2A2526A6]
Copy OK

Track 2

Filename E:\Pearl Jam\2004 – Rearviewmirror (Greatest Hits 1991-2003) Disc 1\02 – Alive.wav

Pre-gap length 0:00:00.58

Peak level 98.8 %
Extraction speed 5.6 X
Track quality 100.0 %
Test CRC B09D3AE6
Copy CRC B09D3AE6
Accurately ripped (confidence 200) [4D760F9F]
Copy OK

Track 3

Filename E:\Pearl Jam\2004 – Rearviewmirror (Greatest Hits 1991-2003) Disc 1\03 – Even Flow.wav

Pre-gap length 0:00:01.08

Peak level 98.8 %
Extraction speed 6.1 X
Track quality 100.0 %
Test CRC 1CE59D16
Copy CRC 1CE59D16
Accurately ripped (confidence 200) [483A5400]
Copy OK

Track 4

Filename E:\Pearl Jam\2004 – Rearviewmirror (Greatest Hits 1991-2003) Disc 1\04 – Jeremy.wav

Peak level 98.8 %
Extraction speed 6.6 X
Track quality 100.0 %
Test CRC 31E8C045
Copy CRC 31E8C045
Accurately ripped (confidence 200) [76004B7F]
Copy OK

Track 5

Filename E:\Pearl Jam\2004 – Rearviewmirror (Greatest Hits 1991-2003) Disc 1\05 – State Of Love And Trust.wav

Pre-gap length 0:00:01.30

Peak level 98.8 %
Extraction speed 5.2 X
Track quality 99.9 %
Test CRC CCCDDD6C
Copy CRC CCCDDD6C
Accurately ripped (confidence 200) [147B6F05]
Copy OK

Track 6

Filename E:\Pearl Jam\2004 – Rearviewmirror (Greatest Hits 1991-2003) Disc 1\06 – Animal.wav

Peak level 98.8 %
Extraction speed 6.6 X
Track quality 100.0 %
Test CRC 48946DC6
Copy CRC 48946DC6
Accurately ripped (confidence 200) [7D2EE6DE]
Copy OK

Track 7

Filename E:\Pearl Jam\2004 – Rearviewmirror (Greatest Hits 1991-2003) Disc 1\07 – Go.wav

Peak level 98.8 %
Extraction speed 5.3 X
Track quality 99.9 %
Test CRC C19A50DD
Copy CRC C19A50DD
Accurately ripped (confidence 200) [B83EBF10]
Copy OK

Track 8

Filename E:\Pearl Jam\2004 – Rearviewmirror (Greatest Hits 1991-2003) Disc 1\08 – Dissident.wav

Pre-gap length 0:00:00.35

Peak level 98.8 %
Extraction speed 7.3 X
Track quality 100.0 %
Test CRC 304E7D77
Copy CRC 304E7D77
Accurately ripped (confidence 200) [FFB3B1A5]
Copy OK

Track 9

Filename E:\Pearl Jam\2004 – Rearviewmirror (Greatest Hits 1991-2003) Disc 1\09 – Rearviewmirror.wav

Pre-gap length 0:00:00.42

Peak level 98.8 %
Extraction speed 7.9 X
Track quality 100.0 %
Test CRC D0C0A132
Copy CRC D0C0A132
Accurately ripped (confidence 200) [2C87524A]
Copy OK

Track 10

Filename E:\Pearl Jam\2004 – Rearviewmirror (Greatest Hits 1991-2003) Disc 1\10 – Spin The Black Circle.wav

Pre-gap length 0:00:00.07

Peak level 98.8 %
Extraction speed 7.5 X
Track quality 100.0 %
Test CRC 8F1A2730
Copy CRC 8F1A2730
Accurately ripped (confidence 200) [338AA6DD]
Copy OK

Track 11

Filename E:\Pearl Jam\2004 – Rearviewmirror (Greatest Hits 1991-2003) Disc 1\11 – Corduroy.wav

Pre-gap length 0:00:00.70

Peak level 98.8 %
Extraction speed 6.8 X
Track quality 99.9 %
Test CRC DDCF9CC5
Copy CRC DDCF9CC5
Accurately ripped (confidence 200) [BDAC3752]
Copy OK

Track 12

Filename E:\Pearl Jam\2004 – Rearviewmirror (Greatest Hits 1991-2003) Disc 1\12 – Not For You.wav

Pre-gap length 0:00:00.30

Peak level 98.8 %
Extraction speed 7.5 X
Track quality 99.9 %
Test CRC C6985266
Copy CRC C6985266
Accurately ripped (confidence 200) [CBAF6944]
Copy OK

Track 13

Filename E:\Pearl Jam\2004 – Rearviewmirror (Greatest Hits 1991-2003) Disc 1\13 – I Got Id.wav

Pre-gap length 0:00:00.58

Peak level 98.8 %
Extraction speed 7.4 X
Track quality 99.9 %
Test CRC 84E2F668
Copy CRC 84E2F668
Accurately ripped (confidence 200) [8036FB96]
Copy OK

Track 14

Filename E:\Pearl Jam\2004 – Rearviewmirror (Greatest Hits 1991-2003) Disc 1\14 – Hail, Hail.wav

Peak level 98.0 %
Extraction speed 8.9 X
Track quality 100.0 %
Test CRC F13BF87D
Copy CRC F13BF87D
Accurately ripped (confidence 200) [1510C9F3]
Copy OK

Track 15

Filename E:\Pearl Jam\2004 – Rearviewmirror (Greatest Hits 1991-2003) Disc 1\15 – Do The Evolution.wav

Pre-gap length 0:00:00.27

Peak level 98.8 %
Extraction speed 9.1 X
Track quality 100.0 %
Test CRC 8B240B35
Copy CRC 8B240B35
Accurately ripped (confidence 200) [15F69CDB]
Copy OK

Track 16

Filename E:\Pearl Jam\2004 – Rearviewmirror (Greatest Hits 1991-2003) Disc 1\16 – Save You.wav

Peak level 98.8 %
Extraction speed 7.4 X
Track quality 99.9 %
Test CRC D52C671C
Copy CRC D52C671C
Accurately ripped (confidence 200) [FF8E39D8]
Copy OK

All tracks accurately ripped

No errors occurred

End of status report

==== Log checksum 35EC531EE61D5BC4F8E19E597E95B6F181C6B8B608A88F811EF1FA8CCE10ABDF ====

Exact Audio Copy V1.0 beta 1 from 15. November 2010

EAC extraction logfile from 25. December 2010, 22:56

Pearl Jam / Rearviewmirror (Greatest Hits 1991-2003) Disc 2

Used drive : TSSTcorpCDDVDW SH-S222A Adapter: 0 ID: 0

Read mode : Secure
Utilize accurate stream : Yes
Defeat audio cache : Yes
Make use of C2 pointers : No

Read offset correction : 6
Overread into Lead-In and Lead-Out : No
Fill up missing offset samples with silence : Yes
Delete leading and trailing silent blocks : No
Null samples used in CRC calculations : Yes
Used interface : Native Win32 interface for Win NT & 2000
Gap handling : Appended to previous track

Used output format : User Defined Encoder
Selected bitrate : 1024 kBit/s
Quality : High
Add ID3 tag : No
Command line compressor : C:\Program Files (x86)\Exact Audio Copy\FLAC\FLAC.EXE
Additional command line options : -8 -V -T “ARTIST=%a” -T “TITLE=%t” -T “ALBUM=%g” -T “DATE=%y” -T “TRACKNUMBER=%n” -T “TOTALTRACKS=%x” -T “GENRE=%m” -T “COMMENT=EAC V1.0 beta 1, Secure Mode, Test & Copy, AccurateRip, FLAC -8” %s

TOC of the extracted CD

Track | Start | Length | Start sector | End sector
———————————————————
1 | 0:00.00 | 5:39.47 | 0 | 25471
2 | 5:39.47 | 5:24.33 | 25472 | 49804
3 | 11:04.05 | 3:56.00 | 49805 | 67504
4 | 15:00.05 | 3:15.55 | 67505 | 82184
5 | 18:15.60 | 5:12.25 | 82185 | 105609
6 | 23:28.10 | 4:28.57 | 105610 | 125766
7 | 27:56.67 | 4:34.20 | 125767 | 146336
8 | 32:31.12 | 3:53.20 | 146337 | 163831
9 | 36:24.32 | 6:00.68 | 163832 | 190899
10 | 42:25.25 | 4:00.72 | 190900 | 208971
11 | 46:26.22 | 3:26.15 | 208972 | 224436
12 | 49:52.37 | 3:17.38 | 224437 | 239249
13 | 53:10.00 | 5:21.50 | 239250 | 263374
14 | 58:31.50 | 5:10.02 | 263375 | 286626
15 | 63:41.52 | 3:36.13 | 286627 | 302839
16 | 67:17.65 | 3:45.35 | 302840 | 319749
17 | 71:03.25 | 5:03.15 | 319750 | 342489

Track 1

Filename E:\Pearl Jam\2004 – Rearviewmirror (Greatest Hits 1991-2003) Disc 2\01 – Black.wav

Pre-gap length 0:00:02.00

Peak level 98.8 %
Extraction speed 5.0 X
Track quality 100.0 %
Test CRC 948FAC66
Copy CRC 948FAC66
Accurately ripped (confidence 200) [38DF4E00]
Copy OK

Track 2

Filename E:\Pearl Jam\2004 – Rearviewmirror (Greatest Hits 1991-2003) Disc 2\02 – Breath.wav

Pre-gap length 0:00:00.27

Peak level 98.8 %
Extraction speed 4.9 X
Track quality 99.9 %
Test CRC 4FBC34A6
Copy CRC 4FBC34A6
Accurately ripped (confidence 200) [634D4221]
Copy OK

Track 3

Filename E:\Pearl Jam\2004 – Rearviewmirror (Greatest Hits 1991-2003) Disc 2\03 – Daughter.wav

Peak level 98.8 %
Extraction speed 6.0 X
Track quality 100.0 %
Test CRC BD50CC6F
Copy CRC BD50CC6F
Accurately ripped (confidence 200) [5CFA3755]
Copy OK

Track 4

Filename E:\Pearl Jam\2004 – Rearviewmirror (Greatest Hits 1991-2003) Disc 2\04 – Elderly Woman Behind the Counter in a Small Town.wav

Pre-gap length 0:00:00.23

Peak level 98.8 %
Extraction speed 6.1 X
Track quality 100.0 %
Test CRC F9F22C91
Copy CRC F9F22C91
Accurately ripped (confidence 200) [D7449D24]
Copy OK

Track 5

Filename E:\Pearl Jam\2004 – Rearviewmirror (Greatest Hits 1991-2003) Disc 2\05 – Immortality.wav

Pre-gap length 0:00:01.05

Peak level 98.8 %
Extraction speed 7.0 X
Track quality 100.0 %
Test CRC C6970970
Copy CRC C6970970
Accurately ripped (confidence 200) [E04BECD3]
Copy OK

Track 6

Filename E:\Pearl Jam\2004 – Rearviewmirror (Greatest Hits 1991-2003) Disc 2\06 – Better Man.wav

Peak level 98.8 %
Extraction speed 7.2 X
Track quality 100.0 %
Test CRC F76604D3
Copy CRC F76604D3
Accurately ripped (confidence 200) [38197A15]
Copy OK

Track 7

Filename E:\Pearl Jam\2004 – Rearviewmirror (Greatest Hits 1991-2003) Disc 2\07 – Nothingman.wav

Peak level 98.8 %
Extraction speed 6.1 X
Track quality 99.9 %
Test CRC 6A5D7056
Copy CRC 6A5D7056
Accurately ripped (confidence 200) [661547B9]
Copy OK

Track 8

Filename E:\Pearl Jam\2004 – Rearviewmirror (Greatest Hits 1991-2003) Disc 2\08 – Who You Are.wav

Peak level 99.4 %
Extraction speed 7.7 X
Track quality 100.0 %
Test CRC C299F13D
Copy CRC C299F13D
Accurately ripped (confidence 200) [81E8A2EB]
Copy OK

Track 9

Filename E:\Pearl Jam\2004 – Rearviewmirror (Greatest Hits 1991-2003) Disc 2\09 – Off He Goes.wav

Peak level 99.4 %
Extraction speed 8.5 X
Track quality 100.0 %
Test CRC E4BE23F8
Copy CRC E4BE23F8
Accurately ripped (confidence 200) [E3275A1F]
Copy OK

Track 10

Filename E:\Pearl Jam\2004 – Rearviewmirror (Greatest Hits 1991-2003) Disc 2\10 – Given to Fly.wav

Peak level 98.8 %
Extraction speed 8.3 X
Track quality 100.0 %
Test CRC 377ADE65
Copy CRC 377ADE65
Accurately ripped (confidence 200) [93D56D92]
Copy OK

Track 11

Filename E:\Pearl Jam\2004 – Rearviewmirror (Greatest Hits 1991-2003) Disc 2\11 – Wishlist.wav

Peak level 98.8 %
Extraction speed 6.4 X
Track quality 99.9 %
Test CRC 121C8305
Copy CRC 121C8305
Accurately ripped (confidence 200) [9708D625]
Copy OK

Track 12

Filename E:\Pearl Jam\2004 – Rearviewmirror (Greatest Hits 1991-2003) Disc 2\12 – Last Kiss.wav

Peak level 98.8 %
Extraction speed 8.5 X
Track quality 100.0 %
Test CRC 08F0386B
Copy CRC 08F0386B
Accurately ripped (confidence 200) [7EE25774]
Copy OK

Track 13

Filename E:\Pearl Jam\2004 – Rearviewmirror (Greatest Hits 1991-2003) Disc 2\13 – Nothing as It Seems.wav

Pre-gap length 0:00:00.63

Peak level 98.8 %
Extraction speed 9.3 X
Track quality 100.0 %
Test CRC 25716444
Copy CRC 25716444
Accurately ripped (confidence 200) [33C98AE3]
Copy OK

Track 14

Filename E:\Pearl Jam\2004 – Rearviewmirror (Greatest Hits 1991-2003) Disc 2\14 – Light Years.wav

Peak level 98.8 %
Extraction speed 9.6 X
Track quality 100.0 %
Test CRC 609EDADD
Copy CRC 609EDADD
Accurately ripped (confidence 200) [D031B101]
Copy OK

Track 15

Filename E:\Pearl Jam\2004 – Rearviewmirror (Greatest Hits 1991-2003) Disc 2\15 – I Am Mine.wav

Peak level 98.8 %
Extraction speed 7.2 X
Track quality 99.9 %
Test CRC A090B7C5
Copy CRC A090B7C5
Accurately ripped (confidence 200) [390704F3]
Copy OK

Track 16

Filename E:\Pearl Jam\2004 – Rearviewmirror (Greatest Hits 1991-2003) Disc 2\16 – Man of the Hour.wav

Pre-gap length 0:00:00.63

Peak level 98.8 %
Extraction speed 7.4 X
Track quality 99.9 %
Test CRC A7841FC3
Copy CRC A7841FC3
Accurately ripped (confidence 200) [453772B4]
Copy OK

Track 17

Filename E:\Pearl Jam\2004 – Rearviewmirror (Greatest Hits 1991-2003) Disc 2\17 – Yellow Ledbetter.wav

Pre-gap length 0:00:01.68

Peak level 96.6 %
Extraction speed 8.3 X
Track quality 99.9 %
Test CRC DBF84EB9
Copy CRC DBF84EB9
Accurately ripped (confidence 200) [E429DF37]
Copy OK

All tracks accurately ripped

No errors occurred

End of status report

==== Log checksum CF7D78BC93FB47D1A5A4F47610E9619F6DBB44B4ECE48D6EB8BC41268FDF7394 ====

REM GENRE Grunge
REM DATE 2004
REM DISCID ED0FC110
REM COMMENT “ExactAudioCopy v1.0b1”
PERFORMER “Pearl Jam”
TITLE “Rearviewmirror (Greatest Hits 1991-2003) Disc 1”
FILE “01 – Once.wav” WAVE
TRACK 01 AUDIO
TITLE “Once”
PERFORMER “Pearl Jam”
INDEX 01 00:00:00
TRACK 02 AUDIO
TITLE “Alive”
PERFORMER “Pearl Jam”
INDEX 00 03:16:12
FILE “02 – Alive.wav” WAVE
INDEX 01 00:00:00
TRACK 03 AUDIO
TITLE “Even Flow”
PERFORMER “Pearl Jam”
INDEX 00 05:41:52
FILE “03 – Even Flow.wav” WAVE
INDEX 01 00:00:00
FILE “04 – Jeremy.wav” WAVE
TRACK 04 AUDIO
TITLE “Jeremy”
PERFORMER “Pearl Jam”
INDEX 01 00:00:00
TRACK 05 AUDIO
TITLE “State Of Love And Trust”
PERFORMER “Pearl Jam”
INDEX 00 05:19:35
FILE “05 – State Of Love And Trust.wav” WAVE
INDEX 01 00:00:00
FILE “06 – Animal.wav” WAVE
TRACK 06 AUDIO
TITLE “Animal”
PERFORMER “Pearl Jam”
INDEX 01 00:00:00
FILE “07 – Go.wav” WAVE
TRACK 07 AUDIO
TITLE “Go”
PERFORMER “Pearl Jam”
INDEX 01 00:00:00
TRACK 08 AUDIO
TITLE “Dissident”
PERFORMER “Pearl Jam”
INDEX 00 03:12:35
FILE “08 – Dissident.wav” WAVE
INDEX 01 00:00:00
TRACK 09 AUDIO
TITLE “Rearviewmirror”
PERFORMER “Pearl Jam”
INDEX 00 03:34:18
FILE “09 – Rearviewmirror.wav” WAVE
INDEX 01 00:00:00
TRACK 10 AUDIO
TITLE “Spin The Black Circle”
PERFORMER “Pearl Jam”
INDEX 00 04:43:68
FILE “10 – Spin The Black Circle.wav” WAVE
INDEX 01 00:00:00
TRACK 11 AUDIO
TITLE “Corduroy”
PERFORMER “Pearl Jam”
INDEX 00 02:48:43
FILE “11 – Corduroy.wav” WAVE
INDEX 01 00:00:00
TRACK 12 AUDIO
TITLE “Not For You”
PERFORMER “Pearl Jam”
INDEX 00 04:38:65
FILE “12 – Not For You.wav” WAVE
INDEX 01 00:00:00
TRACK 13 AUDIO
TITLE “I Got Id”
PERFORMER “Pearl Jam”
INDEX 00 05:52:67
FILE “13 – I Got Id.wav” WAVE
INDEX 01 00:00:00
FILE “14 – Hail, Hail.wav” WAVE
TRACK 14 AUDIO
TITLE “Hail, Hail”
PERFORMER “Pearl Jam”
INDEX 01 00:00:00
TRACK 15 AUDIO
TITLE “Do The Evolution”
PERFORMER “Pearl Jam”
INDEX 00 03:43:48
FILE “15 – Do The Evolution.wav” WAVE
INDEX 01 00:00:00
FILE “16 – Save You.wav” WAVE
TRACK 16 AUDIO
TITLE “Save You”
PERFORMER “Pearl Jam”
INDEX 01 00:00:00

REM GENRE Grunge
REM DATE 2004
REM DISCID 0711D611
REM COMMENT “ExactAudioCopy v1.0b1”
PERFORMER “Pearl Jam”
TITLE “Rearviewmirror (Greatest Hits 1991-2003) Disc 2”
FILE “01 – Black.wav” WAVE
TRACK 01 AUDIO
TITLE “Black”
PERFORMER “Pearl Jam”
INDEX 01 00:00:00
TRACK 02 AUDIO
TITLE “Breath”
PERFORMER “Pearl Jam”
INDEX 00 05:39:20
FILE “02 – Breath.wav” WAVE
INDEX 01 00:00:00
FILE “03 – Daughter.wav” WAVE
TRACK 03 AUDIO
TITLE “Daughter”
PERFORMER “Pearl Jam”
INDEX 01 00:00:00
TRACK 04 AUDIO
TITLE “Elderly Woman Behind the Counter in a Small Town”
PERFORMER “Pearl Jam”
INDEX 00 03:55:52
FILE “04 – Elderly Woman Behind the Counter in a Small Town.wav” WAVE
INDEX 01 00:00:00
TRACK 05 AUDIO
TITLE “Immortality”
PERFORMER “Pearl Jam”
INDEX 00 03:14:50
FILE “05 – Immortality.wav” WAVE
INDEX 01 00:00:00
FILE “06 – Better Man.wav” WAVE
TRACK 06 AUDIO
TITLE “Better Man”
PERFORMER “Pearl Jam”
INDEX 01 00:00:00
FILE “07 – Nothingman.wav” WAVE
TRACK 07 AUDIO
TITLE “Nothingman”
PERFORMER “Pearl Jam”
INDEX 01 00:00:00
FILE “08 – Who You Are.wav” WAVE
TRACK 08 AUDIO
TITLE “Who You Are”
PERFORMER “Pearl Jam”
INDEX 01 00:00:00
FILE “09 – Off He Goes.wav” WAVE
TRACK 09 AUDIO
TITLE “Off He Goes”
PERFORMER “Pearl Jam”
INDEX 01 00:00:00
FILE “10 – Given to Fly.wav” WAVE
TRACK 10 AUDIO
TITLE “Given to Fly”
PERFORMER “Pearl Jam”
INDEX 01 00:00:00
FILE “11 – Wishlist.wav” WAVE
TRACK 11 AUDIO
TITLE “Wishlist”
PERFORMER “Pearl Jam”
INDEX 01 00:00:00
FILE “12 – Last Kiss.wav” WAVE
TRACK 12 AUDIO
TITLE “Last Kiss”
PERFORMER “Pearl Jam”
INDEX 01 00:00:00
TRACK 13 AUDIO
TITLE “Nothing as It Seems”
PERFORMER “Pearl Jam”
INDEX 00 03:16:50
FILE “13 – Nothing as It Seems.wav” WAVE
INDEX 01 00:00:00
FILE “14 – Light Years.wav” WAVE
TRACK 14 AUDIO
TITLE “Light Years”
PERFORMER “Pearl Jam”
INDEX 01 00:00:00
FILE “15 – I Am Mine.wav” WAVE
TRACK 15 AUDIO
TITLE “I Am Mine”
PERFORMER “Pearl Jam”
INDEX 01 00:00:00
TRACK 16 AUDIO
TITLE “Man of the Hour”
PERFORMER “Pearl Jam”
INDEX 00 03:35:25
FILE “16 – Man of the Hour.wav” WAVE
INDEX 01 00:00:00
TRACK 17 AUDIO
TITLE “Yellow Ledbetter”
PERFORMER “Pearl Jam”
INDEX 00 03:43:42
FILE “17 – Yellow Ledbetter.wav” WAVE
INDEX 01 00:00:00


Leave a Reply

Your email address will not be published. Required fields are marked *

This site uses Akismet to reduce spam. Learn how your comment data is processed.