Pearl Jam – Pearl Jam (Japanese Edition)




[Total: 0    Average: 0/5]

Artist: Pearl Jam
Year: 2006
Genre: Rock
Notes: Discogs
Add. Notes: Japanese Edition
Cover incl.: Yes
Encoder: FLAC
Bitrate: ~1000 kBit/s (44.1 kHz/16 Bit/s)
Log & Cue incl.: Yes
Size: 371 MB
Password: “slam” (without ” “)


All Downloads/Hosters are compatible

Download 1
Share-online.biz
KatFile.com
Rapidgator.net
Mexa.sh
Download 2
Share-online.biz
KatFile.com
Rapidgator.net
Mexa.sh

Tracklist:

1 - Life Wasted - 3:54
2 - World Wide Suicide - 3:29
3 - Comatose - 2:19
4 - Severed Hand - 4:30
5 - Marker In The Sand - 4:23
6 - Parachutes - 3:36
7 - Unemployable - 3:04
8 - Big Wave - 2:58
9 - Gone - 4:09
10 - Wasted Reprise - 0:53
11 - Army Reserve - 3:45
12 - Come Back - 5:29
13 - Inside Job - 7:08

EAC-Log, CUE-Sheed & NFO:

Click to open spoiler
Exact Audio Copy V0.99 prebeta 5 from 4. May 2009

EAC extraction logfile from 2. March 2010, 13:09

Pearl Jam / Pearl Jam

Used drive : HL-DT-STDVDRAM GSA-H42N Adapter: 0 ID: 0

Read mode : Secure
Utilize accurate stream : Yes
Defeat audio cache : Yes
Make use of C2 pointers : No

Read offset correction : 667
Overread into Lead-In and Lead-Out : No
Fill up missing offset samples with silence : Yes
Delete leading and trailing silent blocks : No
Null samples used in CRC calculations : Yes
Used interface : Native Win32 interface for Win NT & 2000
Gap handling : Appended to previous track

Used output format : User Defined Encoder
Selected bitrate : 128 kBit/s
Quality : High
Add ID3 tag : No
Command line compressor : C:\Program Files\Exact Audio Copy\Flac\flac.exe
Additional command line options : -8 -V -T “ARTIST=%a” -T “TITLE=%t” -T “ALBUM=%g” -T “DATE=%y” -T “TRACKNUMBER=%n” -T “GENRE=%m” -T “COMMENT=EAC FLAC -8” %s

TOC of the extracted CD

Track | Start | Length | Start sector | End sector
———————————————————
1 | 0:00.00 | 3:54.19 | 0 | 17568
2 | 3:54.19 | 3:29.07 | 17569 | 33250
3 | 7:23.26 | 2:19.68 | 33251 | 43743
4 | 9:43.19 | 4:30.19 | 43744 | 64012
5 | 14:13.38 | 4:23.10 | 64013 | 83747
6 | 18:36.48 | 3:36.35 | 83748 | 99982
7 | 22:13.08 | 3:04.24 | 99983 | 113806
8 | 25:17.32 | 2:58.36 | 113807 | 127192
9 | 28:15.68 | 4:09.35 | 127193 | 145902
10 | 32:25.28 | 0:53.48 | 145903 | 149925
11 | 33:19.01 | 3:45.35 | 149926 | 166835
12 | 37:04.36 | 5:29.48 | 166836 | 191558
13 | 42:34.09 | 7:08.42 | 191559 | 223700

Track 1

Filename D:\Pearl Jam\Pearl Jam – 2006 – Pearl Jam\01 – Life Wasted.wav

Pre-gap length 0:00:02.00

Peak level 100.0 %
Track quality 100.0 %
Test CRC AA8D3F61
Copy CRC AA8D3F61
Accurately ripped (confidence 2) [35EE473E]
Copy OK

Track 2

Filename D:\Pearl Jam\Pearl Jam – 2006 – Pearl Jam\02 – World Wide Suicide.wav

Pre-gap length 0:00:02.19

Peak level 100.0 %
Track quality 100.0 %
Test CRC C1FDD719
Copy CRC C1FDD719
Accurately ripped (confidence 2) [F645155B]
Copy OK

Track 3

Filename D:\Pearl Jam\Pearl Jam – 2006 – Pearl Jam\03 – Comatose.wav

Pre-gap length 0:00:01.56

Peak level 100.0 %
Track quality 100.0 %
Test CRC 5031A648
Copy CRC 5031A648
Accurately ripped (confidence 2) [52C35B89]
Copy OK

Track 4

Filename D:\Pearl Jam\Pearl Jam – 2006 – Pearl Jam\04 – Severed Hand.wav

Peak level 100.0 %
Track quality 100.0 %
Test CRC BBFC7237
Copy CRC BBFC7237
Accurately ripped (confidence 2) [221771C9]
Copy OK

Track 5

Filename D:\Pearl Jam\Pearl Jam – 2006 – Pearl Jam\05 – Marker In The Sand.wav

Pre-gap length 0:00:02.45

Peak level 100.0 %
Track quality 100.0 %
Test CRC 7FB81F46
Copy CRC 7FB81F46
Accurately ripped (confidence 2) [995EFD5A]
Copy OK

Track 6

Filename D:\Pearl Jam\Pearl Jam – 2006 – Pearl Jam\06 – Parachutes.wav

Pre-gap length 0:00:01.38

Peak level 100.0 %
Track quality 100.0 %
Test CRC EAA6ECA6
Copy CRC EAA6ECA6
Accurately ripped (confidence 2) [0F9F84E0]
Copy OK

Track 7

Filename D:\Pearl Jam\Pearl Jam – 2006 – Pearl Jam\07 – Unemployable.wav

Pre-gap length 0:00:01.11

Peak level 100.0 %
Track quality 100.0 %
Test CRC 91909172
Copy CRC 91909172
Accurately ripped (confidence 2) [9A85D18D]
Copy OK

Track 8

Filename D:\Pearl Jam\Pearl Jam – 2006 – Pearl Jam\08 – Big Wave.wav

Pre-gap length 0:00:00.58

Peak level 100.0 %
Track quality 100.0 %
Test CRC 65E4496D
Copy CRC 65E4496D
Accurately ripped (confidence 2) [57D02294]
Copy OK

Track 9

Filename D:\Pearl Jam\Pearl Jam – 2006 – Pearl Jam\09 – Gone.wav

Pre-gap length 0:00:02.11

Peak level 100.0 %
Track quality 100.0 %
Test CRC C419596F
Copy CRC C419596F
Accurately ripped (confidence 2) [379011FE]
Copy OK

Track 10

Filename D:\Pearl Jam\Pearl Jam – 2006 – Pearl Jam\10 – Wasted Reprise.wav

Pre-gap length 0:00:01.40

Peak level 98.2 %
Track quality 100.0 %
Test CRC 30AEA900
Copy CRC 30AEA900
Accurately ripped (confidence 2) [0193F6EF]
Copy OK

Track 11

Filename D:\Pearl Jam\Pearl Jam – 2006 – Pearl Jam\11 – Army Reserve.wav

Pre-gap length 0:00:01.31

Peak level 100.0 %
Track quality 99.9 %
Test CRC 5A9BFF65
Copy CRC 5A9BFF65
Accurately ripped (confidence 2) [D663DD7C]
Copy OK

Track 12

Filename D:\Pearl Jam\Pearl Jam – 2006 – Pearl Jam\12 – Come Back.wav

Pre-gap length 0:00:02.69

Peak level 100.0 %
Track quality 100.0 %
Test CRC EB3F3D4C
Copy CRC EB3F3D4C
Accurately ripped (confidence 2) [0A65F468]
Copy OK

Track 13

Filename D:\Pearl Jam\Pearl Jam – 2006 – Pearl Jam\13 – Inside Job.wav

Pre-gap length 0:00:03.45

Peak level 100.0 %
Track quality 100.0 %
Test CRC 2887BD0E
Copy CRC 2887BD0E
Accurately ripped (confidence 2) [D009D66A]
Copy OK

All tracks accurately ripped

No errors occurred

End of status report

REM GENRE Rock
REM DATE 2006
REM DISCID B20BA60D
REM COMMENT “ExactAudioCopy v0.99pb5”
PERFORMER “Pearl Jam”
TITLE “Pearl Jam”
FILE “01 – Life Wasted.wav” WAVE
TRACK 01 AUDIO
TITLE “Life Wasted”
PERFORMER “Pearl Jam”
INDEX 01 00:00:00
TRACK 02 AUDIO
TITLE “World Wide Suicide”
PERFORMER “Pearl Jam”
INDEX 00 03:52:00
FILE “02 – World Wide Suicide.wav” WAVE
INDEX 01 00:00:00
TRACK 03 AUDIO
TITLE “Comatose”
PERFORMER “Pearl Jam”
INDEX 00 03:27:26
FILE “03 – Comatose.wav” WAVE
INDEX 01 00:00:00
FILE “04 – Severed Hand.wav” WAVE
TRACK 04 AUDIO
TITLE “Severed Hand”
PERFORMER “Pearl Jam”
INDEX 01 00:00:00
TRACK 05 AUDIO
TITLE “Marker In The Sand”
PERFORMER “Pearl Jam”
INDEX 00 04:27:49
FILE “05 – Marker In The Sand.wav” WAVE
INDEX 01 00:00:00
TRACK 06 AUDIO
TITLE “Parachutes”
PERFORMER “Pearl Jam”
INDEX 00 04:21:47
FILE “06 – Parachutes.wav” WAVE
INDEX 01 00:00:00
TRACK 07 AUDIO
TITLE “Unemployable”
PERFORMER “Pearl Jam”
INDEX 00 03:35:24
FILE “07 – Unemployable.wav” WAVE
INDEX 01 00:00:00
TRACK 08 AUDIO
TITLE “Big Wave”
PERFORMER “Pearl Jam”
INDEX 00 03:03:41
FILE “08 – Big Wave.wav” WAVE
INDEX 01 00:00:00
TRACK 09 AUDIO
TITLE “Gone”
PERFORMER “Pearl Jam”
INDEX 00 02:56:25
FILE “09 – Gone.wav” WAVE
INDEX 01 00:00:00
TRACK 10 AUDIO
TITLE “Wasted Reprise”
PERFORMER “Pearl Jam”
INDEX 00 04:07:70
FILE “10 – Wasted Reprise.wav” WAVE
INDEX 01 00:00:00
TRACK 11 AUDIO
TITLE “Army Reserve”
PERFORMER “Pearl Jam”
INDEX 00 00:52:17
FILE “11 – Army Reserve.wav” WAVE
INDEX 01 00:00:00
TRACK 12 AUDIO
TITLE “Come Back”
PERFORMER “Pearl Jam”
INDEX 00 03:42:41
FILE “12 – Come Back.wav” WAVE
INDEX 01 00:00:00
TRACK 13 AUDIO
TITLE “Inside Job”
PERFORMER “Pearl Jam”
INDEX 00 05:26:03
FILE “13 – Inside Job.wav” WAVE
INDEX 01 00:00:00


Spread the Download

Leave a Reply

Your email address will not be published. Required fields are marked *

Enter the text from the image below
 

This site uses Akismet to reduce spam. Learn how your comment data is processed.