Pearl Jam – Lost Dogs




Artist: Pearl Jam
Year: 2003
Genre: Rock
Notes: Discogs
Add. Notes:
Cover incl.: Yes
Encoder: FLAC
Bitrate: ~1000 kBit/s (44.1 kHz/16 Bit/s)
Log & Cue incl.: Yes
Size: 800,55 MB
Password: “slam” (without ” “)


All Downloads/Hosters are compatible

Download 1
Turbobit.net
KatFile.com
Rapidgator.net
Download 2
Turbobit.net
KatFile.com
Rapidgator.net

Tracklist:

1-1 - All Night - 3:22
1-2 - Sad - 3:39
1-3 - Down - 3:15
1-4 - Hitchhiker - 3:17
1-5 - Don't Gimme No Lip - 2:35
1-6 - Alone - 3:12
1-7 - In The Moonlight - 3:08
1-8 - Education - 2:46
1-9 - Black Red Yellow - 3:26
1-10 - You - 2:54
1-11 - Leavin Here - 2:52
1-12 - Gremmie Out Of Control - 2:26
1-13 - Whale Song - 3:35
1-14 - Undone - 3:10
1-15 - Hold On - 4:23
1-16 - Yellow Ledbetter - 5:01

2-1 - Fatal - 3:39
2-2 - Other Side - 4:04
2-3 - Hard To Imagine - 4:36
2-4 - Footsteps - 3:55
2-5 - Wash - 3:49
2-6 - Dead Man - 4:16
2-7 - Strangest Tribe - 3:49
2-8 - Drifting - 2:53
2-9 - Let Me Sleep - 3:00
2-10 - Last Kiss - 3:17
2-11 - Sweet Lew - 2:11
2-12 - Dirty Frank - 5:42
2-13 - Brother - 3:48
2-14.1 - Bee Girl - 1:43
2-14.2 - 4/20/02 - 3:52

EAC-Log, CUE-Sheed & NFO:

Click to open spoiler
Exact Audio Copy V1.0 beta 1 from 15. November 2010

EAC extraction logfile from 25. December 2010, 23:40

Pearl Jam / Lost Dogs (Disc 1)

Used drive : TSSTcorpCDDVDW SH-S222A Adapter: 0 ID: 0

Read mode : Secure
Utilize accurate stream : Yes
Defeat audio cache : Yes
Make use of C2 pointers : No

Read offset correction : 6
Overread into Lead-In and Lead-Out : No
Fill up missing offset samples with silence : Yes
Delete leading and trailing silent blocks : No
Null samples used in CRC calculations : Yes
Used interface : Native Win32 interface for Win NT & 2000
Gap handling : Appended to previous track

Used output format : User Defined Encoder
Selected bitrate : 1024 kBit/s
Quality : High
Add ID3 tag : No
Command line compressor : C:\Program Files (x86)\Exact Audio Copy\FLAC\FLAC.EXE
Additional command line options : -8 -V -T “ARTIST=%a” -T “TITLE=%t” -T “ALBUM=%g” -T “DATE=%y” -T “TRACKNUMBER=%n” -T “TOTALTRACKS=%x” -T “GENRE=%m” -T “COMMENT=EAC V1.0 beta 1, Secure Mode, Test & Copy, AccurateRip, FLAC -8” %s

TOC of the extracted CD

Track | Start | Length | Start sector | End sector
———————————————————
1 | 0:00.00 | 3:22.09 | 0 | 15158
2 | 3:22.09 | 3:39.12 | 15159 | 31595
3 | 7:01.21 | 3:15.34 | 31596 | 46254
4 | 10:16.55 | 3:17.28 | 46255 | 61057
5 | 13:34.08 | 2:35.27 | 61058 | 72709
6 | 16:09.35 | 3:11.46 | 72710 | 87080
7 | 19:21.06 | 3:07.38 | 87081 | 101143
8 | 22:28.44 | 2:46.18 | 101144 | 113611
9 | 25:14.62 | 3:26.07 | 113612 | 129068
10 | 28:40.69 | 2:53.66 | 129069 | 142109
11 | 31:34.60 | 2:51.51 | 142110 | 154985
12 | 34:26.36 | 2:25.57 | 154986 | 165917
13 | 36:52.18 | 3:35.08 | 165918 | 182050
14 | 40:27.26 | 3:10.30 | 182051 | 196330
15 | 43:37.56 | 4:22.56 | 196331 | 216036
16 | 48:00.37 | 5:00.62 | 216037 | 238598

Track 1

Filename E:\Pearl Jam\2003 – Lost Dogs (Disc 1)\01 – All Night.wav

Pre-gap length 0:00:02.00

Peak level 100.0 %
Extraction speed 4.8 X
Track quality 100.0 %
Test CRC 41C92707
Copy CRC 41C92707
Accurately ripped (confidence 7) [13A54EA6]
Copy OK

Track 2

Filename E:\Pearl Jam\2003 – Lost Dogs (Disc 1)\02 – Sad.wav

Pre-gap length 0:00:01.37

Peak level 99.8 %
Extraction speed 4.1 X
Track quality 99.9 %
Test CRC CF7733AB
Copy CRC CF7733AB
Accurately ripped (confidence 7) [BDF24C48]
Copy OK

Track 3

Filename E:\Pearl Jam\2003 – Lost Dogs (Disc 1)\03 – Down.wav

Pre-gap length 0:00:01.00

Peak level 100.0 %
Extraction speed 5.5 X
Track quality 100.0 %
Test CRC 45B5549C
Copy CRC 45B5549C
Accurately ripped (confidence 7) [05E7BAD3]
Copy OK

Track 4

Filename E:\Pearl Jam\2003 – Lost Dogs (Disc 1)\04 – Hitchhiker.wav

Pre-gap length 0:00:01.37

Peak level 97.3 %
Extraction speed 5.7 X
Track quality 100.0 %
Test CRC E0A282E0
Copy CRC E0A282E0
Accurately ripped (confidence 7) [9F61C6C9]
Copy OK

Track 5

Filename E:\Pearl Jam\2003 – Lost Dogs (Disc 1)\05 – Don’t Gimme No Lip.wav

Pre-gap length 0:00:01.36

Peak level 100.0 %
Extraction speed 5.7 X
Track quality 100.0 %
Test CRC FD141538
Copy CRC FD141538
Accurately ripped (confidence 7) [B830F254]
Copy OK

Track 6

Filename E:\Pearl Jam\2003 – Lost Dogs (Disc 1)\06 – Alone.wav

Pre-gap length 0:00:01.37

Peak level 100.0 %
Extraction speed 4.7 X
Track quality 99.9 %
Test CRC 178DF30D
Copy CRC 178DF30D
Accurately ripped (confidence 7) [E04DEDAA]
Copy OK

Track 7

Filename E:\Pearl Jam\2003 – Lost Dogs (Disc 1)\07 – In The Moonlight.wav

Pre-gap length 0:00:01.37

Peak level 100.0 %
Extraction speed 6.5 X
Track quality 100.0 %
Test CRC 8A997CA6
Copy CRC 8A997CA6
Accurately ripped (confidence 7) [773ECA77]
Copy OK

Track 8

Filename E:\Pearl Jam\2003 – Lost Dogs (Disc 1)\08 – Education.wav

Pre-gap length 0:00:01.37

Peak level 100.0 %
Extraction speed 6.5 X
Track quality 100.0 %
Test CRC A954FD9F
Copy CRC A954FD9F
Accurately ripped (confidence 7) [8B4D7368]
Copy OK

Track 9

Filename E:\Pearl Jam\2003 – Lost Dogs (Disc 1)\09 – Black, Red, Yellow.wav

Pre-gap length 0:00:01.37

Peak level 100.0 %
Extraction speed 7.0 X
Track quality 100.0 %
Test CRC DE30BFCE
Copy CRC DE30BFCE
Accurately ripped (confidence 7) [A80F4B06]
Copy OK

Track 10

Filename E:\Pearl Jam\2003 – Lost Dogs (Disc 1)\10 – U.wav

Pre-gap length 0:00:01.37

Peak level 97.9 %
Extraction speed 7.0 X
Track quality 100.0 %
Test CRC 06F4D54A
Copy CRC 06F4D54A
Accurately ripped (confidence 7) [DBFB6E5A]
Copy OK

Track 11

Filename E:\Pearl Jam\2003 – Lost Dogs (Disc 1)\11 – Leaving Here.wav

Pre-gap length 0:00:01.37

Peak level 100.0 %
Extraction speed 5.3 X
Track quality 99.9 %
Test CRC A834CA3B
Copy CRC A834CA3B
Accurately ripped (confidence 7) [CCCCDF92]
Copy OK

Track 12

Filename E:\Pearl Jam\2003 – Lost Dogs (Disc 1)\12 – Gremmie Out Of Control.wav

Pre-gap length 0:00:01.37

Peak level 100.0 %
Extraction speed 5.1 X
Track quality 99.9 %
Test CRC 5B12CBD6
Copy CRC 5B12CBD6
Accurately ripped (confidence 7) [3DACAC4D]
Copy OK

Track 13

Filename E:\Pearl Jam\2003 – Lost Dogs (Disc 1)\13 – Whale Song.wav

Pre-gap length 0:00:01.37

Peak level 100.0 %
Extraction speed 7.8 X
Track quality 100.0 %
Test CRC 76094157
Copy CRC 76094157
Accurately ripped (confidence 7) [D0A5B4AB]
Copy OK

Track 14

Filename E:\Pearl Jam\2003 – Lost Dogs (Disc 1)\14 – Undone.wav

Pre-gap length 0:00:01.37

Peak level 99.0 %
Extraction speed 7.9 X
Track quality 100.0 %
Test CRC 63BAB218
Copy CRC 63BAB218
Accurately ripped (confidence 7) [77185714]
Copy OK

Track 15

Filename E:\Pearl Jam\2003 – Lost Dogs (Disc 1)\15 – Hold On.wav

Pre-gap length 0:00:01.37

Peak level 100.0 %
Extraction speed 8.4 X
Track quality 100.0 %
Test CRC 392E1516
Copy CRC 392E1516
Accurately ripped (confidence 7) [96DE9337]
Copy OK

Track 16

Filename E:\Pearl Jam\2003 – Lost Dogs (Disc 1)\16 – Yellow Ledbetter.wav

Pre-gap length 0:00:00.74

Peak level 96.6 %
Extraction speed 7.3 X
Track quality 99.9 %
Test CRC D854B40B
Copy CRC D854B40B
Accurately ripped (confidence 7) [B84E3049]
Copy OK

All tracks accurately ripped

No errors occurred

End of status report

==== Log checksum 77D3D952B0D969D9C195AD2350BCE3712FBEFDF49276DAE62D7E7ABCF5F712C1 ====

Exact Audio Copy V1.0 beta 1 from 15. November 2010

EAC extraction logfile from 26. December 2010, 0:02

Pearl Jam / Lost Dogs (Disc 2)

Used drive : TSSTcorpCDDVDW SH-S222A Adapter: 0 ID: 0

Read mode : Secure
Utilize accurate stream : Yes
Defeat audio cache : Yes
Make use of C2 pointers : No

Read offset correction : 6
Overread into Lead-In and Lead-Out : No
Fill up missing offset samples with silence : Yes
Delete leading and trailing silent blocks : No
Null samples used in CRC calculations : Yes
Used interface : Native Win32 interface for Win NT & 2000
Gap handling : Appended to previous track

Used output format : User Defined Encoder
Selected bitrate : 1024 kBit/s
Quality : High
Add ID3 tag : No
Command line compressor : C:\Program Files (x86)\Exact Audio Copy\FLAC\FLAC.EXE
Additional command line options : -8 -V -T “ARTIST=%a” -T “TITLE=%t” -T “ALBUM=%g” -T “DATE=%y” -T “TRACKNUMBER=%n” -T “TOTALTRACKS=%x” -T “GENRE=%m” -T “COMMENT=EAC V1.0 beta 1, Secure Mode, Test & Copy, AccurateRip, FLAC -8” %s

TOC of the extracted CD

Track | Start | Length | Start sector | End sector
———————————————————
1 | 0:00.00 | 3:39.27 | 0 | 16451
2 | 3:39.27 | 4:04.32 | 16452 | 34783
3 | 7:43.59 | 4:35.59 | 34784 | 55467
4 | 12:19.43 | 3:54.58 | 55468 | 73075
5 | 16:14.26 | 3:48.53 | 73076 | 90228
6 | 20:03.04 | 4:16.29 | 90229 | 109457
7 | 24:19.33 | 3:49.18 | 109458 | 126650
8 | 28:08.51 | 2:53.02 | 126651 | 139627
9 | 31:01.53 | 2:59.25 | 139628 | 153077
10 | 34:01.03 | 3:17.11 | 153078 | 167863
11 | 37:18.14 | 2:11.54 | 167864 | 177742
12 | 39:29.68 | 5:42.02 | 177743 | 203394
13 | 45:11.70 | 3:47.29 | 203395 | 220448
14 | 48:59.24 | 9:55.38 | 220449 | 265111

Track 1

Filename E:\Pearl Jam\2003 – Lost Dogs (Disc 2)\01 – Fatal.wav

Pre-gap length 0:00:02.00

Peak level 97.1 %
Extraction speed 4.8 X
Track quality 100.0 %
Test CRC 8CC1E92A
Copy CRC 8CC1E92A
Accurately ripped (confidence 20) [E2D9A8BD]
Copy OK

Track 2

Filename E:\Pearl Jam\2003 – Lost Dogs (Disc 2)\02 – Other Side.wav

Pre-gap length 0:00:01.37

Peak level 99.4 %
Extraction speed 4.3 X
Track quality 99.9 %
Test CRC D40DB4C7
Copy CRC D40DB4C7
Accurately ripped (confidence 20) [AEB83A33]
Copy OK

Track 3

Filename E:\Pearl Jam\2003 – Lost Dogs (Disc 2)\03 – Hard To Imagine.wav

Pre-gap length 0:00:01.37

Peak level 100.0 %
Extraction speed 5.9 X
Track quality 100.0 %
Test CRC 5A40DC6B
Copy CRC 5A40DC6B
Accurately ripped (confidence 20) [76826C65]
Copy OK

Track 4

Filename E:\Pearl Jam\2003 – Lost Dogs (Disc 2)\04 – Footsteps.wav

Pre-gap length 0:00:01.37

Peak level 90.5 %
Extraction speed 4.8 X
Track quality 99.9 %
Test CRC EE1E680F
Copy CRC EE1E680F
Accurately ripped (confidence 19) [8F9B28E3]
Copy OK

Track 5

Filename E:\Pearl Jam\2003 – Lost Dogs (Disc 2)\05 – Wash.wav

Pre-gap length 0:00:01.37

Peak level 100.0 %
Extraction speed 6.4 X
Track quality 100.0 %
Test CRC 475723C9
Copy CRC 475723C9
Accurately ripped (confidence 20) [C6A48205]
Copy OK

Track 6

Filename E:\Pearl Jam\2003 – Lost Dogs (Disc 2)\06 – Dead Man.wav

Pre-gap length 0:00:01.37

Peak level 94.8 %
Extraction speed 6.8 X
Track quality 100.0 %
Test CRC 3B98266E
Copy CRC 3B98266E
Accurately ripped (confidence 20) [E8DDDD4A]
Copy OK

Track 7

Filename E:\Pearl Jam\2003 – Lost Dogs (Disc 2)\07 – Strangest Tribe.wav

Pre-gap length 0:00:01.37

Peak level 100.0 %
Extraction speed 7.1 X
Track quality 100.0 %
Test CRC A177E90F
Copy CRC A177E90F
Accurately ripped (confidence 20) [6DBBA835]
Copy OK

Track 8

Filename E:\Pearl Jam\2003 – Lost Dogs (Disc 2)\08 – Drifting.wav

Pre-gap length 0:00:01.37

Peak level 98.5 %
Extraction speed 5.2 X
Track quality 99.9 %
Test CRC 49928AB4
Copy CRC 49928AB4
Accurately ripped (confidence 20) [83CA84DF]
Copy OK

Track 9

Filename E:\Pearl Jam\2003 – Lost Dogs (Disc 2)\09 – Let Me Sleep.wav

Pre-gap length 0:00:01.37

Peak level 96.5 %
Extraction speed 5.4 X
Track quality 99.9 %
Test CRC BCEE12A2
Copy CRC BCEE12A2
Accurately ripped (confidence 20) [98484F99]
Copy OK

Track 10

Filename E:\Pearl Jam\2003 – Lost Dogs (Disc 2)\10 – Last Kiss.wav

Pre-gap length 0:00:01.37

Peak level 100.0 %
Extraction speed 7.4 X
Track quality 100.0 %
Test CRC EE2AC2E5
Copy CRC EE2AC2E5
Accurately ripped (confidence 20) [16652727]
Copy OK

Track 11

Filename E:\Pearl Jam\2003 – Lost Dogs (Disc 2)\11 – Sweet Lew.wav

Pre-gap length 0:00:01.37

Peak level 100.0 %
Extraction speed 7.1 X
Track quality 100.0 %
Test CRC 1727626B
Copy CRC 1727626B
Accurately ripped (confidence 20) [E87619C3]
Copy OK

Track 12

Filename E:\Pearl Jam\2003 – Lost Dogs (Disc 2)\12 – Dirty Frank.wav

Pre-gap length 0:00:01.37

Peak level 100.0 %
Extraction speed 7.2 X
Track quality 99.9 %
Test CRC F5181411
Copy CRC F5181411
Accurately ripped (confidence 20) [D0914294]
Copy OK

Track 13

Filename E:\Pearl Jam\2003 – Lost Dogs (Disc 2)\13 – Brother.wav

Pre-gap length 0:00:01.37

Peak level 100.0 %
Extraction speed 8.4 X
Track quality 100.0 %
Test CRC 6494CCF0
Copy CRC 6494CCF0
Accurately ripped (confidence 20) [0E2E8352]
Copy OK

Track 14

Filename E:\Pearl Jam\2003 – Lost Dogs (Disc 2)\14 – Bee Girl.wav

Pre-gap length 0:00:01.37

Peak level 96.2 %
Extraction speed 9.7 X
Track quality 100.0 %
Test CRC 2BD819AD
Copy CRC 2BD819AD
Accurately ripped (confidence 19) [CD8ACAF0]
Copy OK

All tracks accurately ripped

No errors occurred

End of status report

==== Log checksum 8BA3B9CCF29BF7C387C30D8D992AE686E1D073D8B30458AC0ECE3DA20762E546 ====

REM GENRE Grunge
REM DATE 2003
REM DISCID D50C6D10
REM COMMENT “ExactAudioCopy v1.0b1”
PERFORMER “Pearl Jam”
TITLE “Lost Dogs (Disc 1)”
FILE “01 – All Night.wav” WAVE
TRACK 01 AUDIO
TITLE “All Night”
PERFORMER “Pearl Jam”
INDEX 01 00:00:00
TRACK 02 AUDIO
TITLE “Sad”
PERFORMER “Pearl Jam”
INDEX 00 03:20:47
FILE “02 – Sad.wav” WAVE
INDEX 01 00:00:00
TRACK 03 AUDIO
TITLE “Down”
PERFORMER “Pearl Jam”
INDEX 00 03:38:12
FILE “03 – Down.wav” WAVE
INDEX 01 00:00:00
TRACK 04 AUDIO
TITLE “Hitchhiker”
PERFORMER “Pearl Jam”
INDEX 00 03:13:72
FILE “04 – Hitchhiker.wav” WAVE
INDEX 01 00:00:00
TRACK 05 AUDIO
TITLE “Don’t Gimme No Lip”
PERFORMER “Pearl Jam”
INDEX 00 03:15:67
FILE “05 – Don’t Gimme No Lip.wav” WAVE
INDEX 01 00:00:00
TRACK 06 AUDIO
TITLE “Alone”
PERFORMER “Pearl Jam”
INDEX 00 02:33:65
FILE “06 – Alone.wav” WAVE
INDEX 01 00:00:00
TRACK 07 AUDIO
TITLE “In The Moonlight”
PERFORMER “Pearl Jam”
INDEX 00 03:10:09
FILE “07 – In The Moonlight.wav” WAVE
INDEX 01 00:00:00
TRACK 08 AUDIO
TITLE “Education”
PERFORMER “Pearl Jam”
INDEX 00 03:06:01
FILE “08 – Education.wav” WAVE
INDEX 01 00:00:00
TRACK 09 AUDIO
TITLE “Black, Red, Yellow”
PERFORMER “Pearl Jam”
INDEX 00 02:44:56
FILE “09 – Black, Red, Yellow.wav” WAVE
INDEX 01 00:00:00
TRACK 10 AUDIO
TITLE “U”
PERFORMER “Pearl Jam”
INDEX 00 03:24:45
FILE “10 – U.wav” WAVE
INDEX 01 00:00:00
TRACK 11 AUDIO
TITLE “Leaving Here”
PERFORMER “Pearl Jam”
INDEX 00 02:52:29
FILE “11 – Leaving Here.wav” WAVE
INDEX 01 00:00:00
TRACK 12 AUDIO
TITLE “Gremmie Out Of Control”
PERFORMER “Pearl Jam”
INDEX 00 02:50:14
FILE “12 – Gremmie Out Of Control.wav” WAVE
INDEX 01 00:00:00
TRACK 13 AUDIO
TITLE “Whale Song”
PERFORMER “Pearl Jam”
INDEX 00 02:24:20
FILE “13 – Whale Song.wav” WAVE
INDEX 01 00:00:00
TRACK 14 AUDIO
TITLE “Undone”
PERFORMER “Pearl Jam”
INDEX 00 03:33:46
FILE “14 – Undone.wav” WAVE
INDEX 01 00:00:00
TRACK 15 AUDIO
TITLE “Hold On”
PERFORMER “Pearl Jam”
INDEX 00 03:08:68
FILE “15 – Hold On.wav” WAVE
INDEX 01 00:00:00
TRACK 16 AUDIO
TITLE “Yellow Ledbetter”
PERFORMER “Pearl Jam”
INDEX 00 04:21:57
FILE “16 – Yellow Ledbetter.wav” WAVE
INDEX 01 00:00:00

REM GENRE Grunge
REM DATE 2003
REM DISCID A90DCE0E
REM COMMENT “ExactAudioCopy v1.0b1”
PERFORMER “Pearl Jam”
TITLE “Lost Dogs (Disc 2)”
FILE “01 – Fatal.wav” WAVE
TRACK 01 AUDIO
TITLE “Fatal”
PERFORMER “Pearl Jam”
INDEX 01 00:00:00
TRACK 02 AUDIO
TITLE “Other Side”
PERFORMER “Pearl Jam”
INDEX 00 03:37:65
FILE “02 – Other Side.wav” WAVE
INDEX 01 00:00:00
TRACK 03 AUDIO
TITLE “Hard To Imagine”
PERFORMER “Pearl Jam”
INDEX 00 04:02:70
FILE “03 – Hard To Imagine.wav” WAVE
INDEX 01 00:00:00
TRACK 04 AUDIO
TITLE “Footsteps”
PERFORMER “Pearl Jam”
INDEX 00 04:34:22
FILE “04 – Footsteps.wav” WAVE
INDEX 01 00:00:00
TRACK 05 AUDIO
TITLE “Wash”
PERFORMER “Pearl Jam”
INDEX 00 03:53:21
FILE “05 – Wash.wav” WAVE
INDEX 01 00:00:00
TRACK 06 AUDIO
TITLE “Dead Man”
PERFORMER “Pearl Jam”
INDEX 00 03:47:16
FILE “06 – Dead Man.wav” WAVE
INDEX 01 00:00:00
TRACK 07 AUDIO
TITLE “Strangest Tribe”
PERFORMER “Pearl Jam”
INDEX 00 04:14:67
FILE “07 – Strangest Tribe.wav” WAVE
INDEX 01 00:00:00
TRACK 08 AUDIO
TITLE “Drifting”
PERFORMER “Pearl Jam”
INDEX 00 03:47:56
FILE “08 – Drifting.wav” WAVE
INDEX 01 00:00:00
TRACK 09 AUDIO
TITLE “Let Me Sleep”
PERFORMER “Pearl Jam”
INDEX 00 02:51:40
FILE “09 – Let Me Sleep.wav” WAVE
INDEX 01 00:00:00
TRACK 10 AUDIO
TITLE “Last Kiss”
PERFORMER “Pearl Jam”
INDEX 00 02:57:63
FILE “10 – Last Kiss.wav” WAVE
INDEX 01 00:00:00
TRACK 11 AUDIO
TITLE “Sweet Lew”
PERFORMER “Pearl Jam”
INDEX 00 03:15:49
FILE “11 – Sweet Lew.wav” WAVE
INDEX 01 00:00:00
TRACK 12 AUDIO
TITLE “Dirty Frank”
PERFORMER “Pearl Jam”
INDEX 00 02:10:17
FILE “12 – Dirty Frank.wav” WAVE
INDEX 01 00:00:00
TRACK 13 AUDIO
TITLE “Brother”
PERFORMER “Pearl Jam”
INDEX 00 05:40:40
FILE “13 – Brother.wav” WAVE
INDEX 01 00:00:00
TRACK 14 AUDIO
TITLE “Bee Girl”
PERFORMER “Pearl Jam”
INDEX 00 03:45:67
FILE “14 – Bee Girl.wav” WAVE
INDEX 01 00:00:00


Leave a Reply

Your email address will not be published. Required fields are marked *

This site uses Akismet to reduce spam. Learn how your comment data is processed.