Pearl Jam – Live On Two Legs




Artist: Pearl Jam
Year: 1998
Genre: Rock
Notes: Discogs
Add. Notes:
Cover incl.: Yes
Encoder: FLAC
Bitrate: ~1000 kBit/s (44.1 kHz/16 Bit/s)
Log & Cue incl.: Yes
Size: 514,98 MB
Password: “slam” (without ” “)


All Downloads/Hosters are compatible

Download 1
Turbobit.net
KatFile.com
Rapidgator.net
Download 2
Turbobit.net
KatFile.com
Rapidgator.net

Tracklist:

1. Corduroy
2. Given To Fly
3. Hail, Hail
4. Daughter
5. Elderly Woman Behind 
6. Untitled
7. MFC
8. Go
9. Red Mosquito
10. Even Flow
11. Off He Goes
12. Nothingman
13. Do The Evolution
14. Better Man
15. Black
16. Fuckin' Up

EAC-Log, CUE-Sheed & NFO:

Click to open spoiler
Exact Audio Copy V0.99 prebeta 5 from 4. May 2009

EAC extraction logfile from 9. April 2010, 14:38

Pearl Jam / Live On Two Legs

Used drive : HL-DT-STDVDRAM GSA-H42N Adapter: 0 ID: 0

Read mode : Secure
Utilize accurate stream : Yes
Defeat audio cache : Yes
Make use of C2 pointers : No

Read offset correction : 667
Overread into Lead-In and Lead-Out : No
Fill up missing offset samples with silence : Yes
Delete leading and trailing silent blocks : No
Null samples used in CRC calculations : Yes
Used interface : Native Win32 interface for Win NT & 2000
Gap handling : Appended to previous track

Used output format : User Defined Encoder
Selected bitrate : 128 kBit/s
Quality : High
Add ID3 tag : No
Command line compressor : C:\Program Files\Exact Audio Copy\Flac\flac.exe
Additional command line options : -8 -V -T “ARTIST=%a” -T “TITLE=%t” -T “ALBUM=%g” -T “DATE=%y” -T “TRACKNUMBER=%n” -T “GENRE=%m” -T “COMMENT=EAC FLAC -8” %s

TOC of the extracted CD

Track | Start | Length | Start sector | End sector
———————————————————
1 | 0:00.00 | 5:05.15 | 0 | 22889
2 | 5:05.15 | 3:53.40 | 22890 | 40404
3 | 8:58.55 | 3:43.50 | 40405 | 57179
4 | 12:42.30 | 6:47.30 | 57180 | 87734
5 | 19:29.60 | 3:49.17 | 87735 | 104926
6 | 23:19.02 | 2:02.52 | 104927 | 114128
7 | 25:21.54 | 2:28.08 | 114129 | 125236
8 | 27:49.62 | 2:41.33 | 125237 | 137344
9 | 30:31.20 | 4:02.67 | 137345 | 155561
10 | 34:34.12 | 5:17.00 | 155562 | 179336
11 | 39:51.12 | 5:43.10 | 179337 | 205071
12 | 45:34.22 | 4:38.38 | 205072 | 225959
13 | 50:12.60 | 3:45.27 | 225960 | 242861
14 | 53:58.12 | 4:06.08 | 242862 | 261319
15 | 58:04.20 | 6:55.47 | 261320 | 292491
16 | 64:59.67 | 6:17.43 | 292492 | 320809

Track 1

Filename E:\Pearl Jam\[live]\Pearl Jam – 1998 – Live On Two Legs [Japan, Sony, SRCS 8851]\01 – Corduroy.wav

Pre-gap length 0:00:02.00

Peak level 97.7 %
Track quality 100.0 %
Test CRC 1B2B7FF7
Copy CRC 1B2B7FF7
Track not present in AccurateRip database
Copy OK

Track 2

Filename E:\Pearl Jam\[live]\Pearl Jam – 1998 – Live On Two Legs [Japan, Sony, SRCS 8851]\02 – Given To Fly.wav

Peak level 98.0 %
Track quality 100.0 %
Test CRC 80FBC949
Copy CRC 80FBC949
Track not present in AccurateRip database
Copy OK

Track 3

Filename E:\Pearl Jam\[live]\Pearl Jam – 1998 – Live On Two Legs [Japan, Sony, SRCS 8851]\03 – Hail, Hail.wav

Peak level 97.9 %
Track quality 100.0 %
Test CRC F4EFAF97
Copy CRC F4EFAF97
Track not present in AccurateRip database
Copy OK

Track 4

Filename E:\Pearl Jam\[live]\Pearl Jam – 1998 – Live On Two Legs [Japan, Sony, SRCS 8851]\04 – Daughter.wav

Peak level 97.7 %
Track quality 100.0 %
Test CRC 8608F985
Copy CRC 8608F985
Track not present in AccurateRip database
Copy OK

Track 5

Filename E:\Pearl Jam\[live]\Pearl Jam – 1998 – Live On Two Legs [Japan, Sony, SRCS 8851]\05 – Elderly Woman Behind The Counter In A Small Town.wav

Peak level 97.7 %
Track quality 100.0 %
Test CRC 0CC988AC
Copy CRC 0CC988AC
Track not present in AccurateRip database
Copy OK

Track 6

Filename E:\Pearl Jam\[live]\Pearl Jam – 1998 – Live On Two Legs [Japan, Sony, SRCS 8851]\06 -.wav

Peak level 96.2 %
Track quality 100.0 %
Test CRC 8978F0DB
Copy CRC 8978F0DB
Track not present in AccurateRip database
Copy OK

Track 7

Filename E:\Pearl Jam\[live]\Pearl Jam – 1998 – Live On Two Legs [Japan, Sony, SRCS 8851]\07 – MFC.wav

Peak level 97.7 %
Track quality 99.9 %
Test CRC 01FEC15D
Copy CRC 01FEC15D
Track not present in AccurateRip database
Copy OK

Track 8

Filename E:\Pearl Jam\[live]\Pearl Jam – 1998 – Live On Two Legs [Japan, Sony, SRCS 8851]\08 – Go.wav

Peak level 97.7 %
Track quality 100.0 %
Test CRC C6CA4A2E
Copy CRC C6CA4A2E
Track not present in AccurateRip database
Copy OK

Track 9

Filename E:\Pearl Jam\[live]\Pearl Jam – 1998 – Live On Two Legs [Japan, Sony, SRCS 8851]\09 – Red Mosquito.wav

Peak level 98.8 %
Track quality 100.0 %
Test CRC 323A31E7
Copy CRC 323A31E7
Track not present in AccurateRip database
Copy OK

Track 10

Filename E:\Pearl Jam\[live]\Pearl Jam – 1998 – Live On Two Legs [Japan, Sony, SRCS 8851]\10 – Even Flow.wav

Peak level 97.7 %
Track quality 100.0 %
Test CRC F06311C0
Copy CRC F06311C0
Track not present in AccurateRip database
Copy OK

Track 11

Filename E:\Pearl Jam\[live]\Pearl Jam – 1998 – Live On Two Legs [Japan, Sony, SRCS 8851]\11 – Off He Goes.wav

Peak level 97.7 %
Track quality 100.0 %
Test CRC CCA25B90
Copy CRC CCA25B90
Track not present in AccurateRip database
Copy OK

Track 12

Filename E:\Pearl Jam\[live]\Pearl Jam – 1998 – Live On Two Legs [Japan, Sony, SRCS 8851]\12 – Nothingman.wav

Peak level 97.7 %
Track quality 100.0 %
Test CRC D82F6EDB
Copy CRC D82F6EDB
Track not present in AccurateRip database
Copy OK

Track 13

Filename E:\Pearl Jam\[live]\Pearl Jam – 1998 – Live On Two Legs [Japan, Sony, SRCS 8851]\13 – Do The Evolution.wav

Peak level 98.8 %
Track quality 100.0 %
Test CRC 89FEB67E
Copy CRC 89FEB67E
Track not present in AccurateRip database
Copy OK

Track 14

Filename E:\Pearl Jam\[live]\Pearl Jam – 1998 – Live On Two Legs [Japan, Sony, SRCS 8851]\14 – Better Man.wav

Peak level 97.7 %
Track quality 100.0 %
Test CRC B9054BB3
Copy CRC B9054BB3
Track not present in AccurateRip database
Copy OK

Track 15

Filename E:\Pearl Jam\[live]\Pearl Jam – 1998 – Live On Two Legs [Japan, Sony, SRCS 8851]\15 – Black.wav

Peak level 97.7 %
Track quality 100.0 %
Test CRC 5A8FEEB5
Copy CRC 5A8FEEB5
Track not present in AccurateRip database
Copy OK

Track 16

Filename E:\Pearl Jam\[live]\Pearl Jam – 1998 – Live On Two Legs [Japan, Sony, SRCS 8851]\16 – Fuckin’ Up.wav

Peak level 98.8 %
Track quality 99.9 %
Test CRC 2AD82A07
Copy CRC 2AD82A07
Track not present in AccurateRip database
Copy OK

None of the tracks are present in the AccurateRip database

No errors occurred

End of status report

REM GENRE Rock
REM DATE 1998
REM DISCID C410B510
REM COMMENT ExactAudioCopy v0.99pb5
PERFORMER “Pearl Jam”
TITLE “Live On Two Legs (SRCS-8851)”
FILE “01 – Corduroy.wav” WAVE
TRACK 01 AUDIO
TITLE “Corduroy”
INDEX 01 00:00:00
FILE “02 – Given To Fly.wav” WAVE
TRACK 02 AUDIO
TITLE “Given To Fly”
INDEX 01 00:00:00
FILE “03 – Hail, Hail.wav” WAVE
TRACK 03 AUDIO
TITLE “Hail, Hail”
INDEX 01 00:00:00
FILE “04 – Daughter.wav” WAVE
TRACK 04 AUDIO
TITLE “Daughter”
INDEX 01 00:00:00
FILE “05 – Elderly Woman Behind The Counter In A Small Town.wav” WAVE
TRACK 05 AUDIO
TITLE “Elderly Woman Behind The Counter In A Small Town”
INDEX 01 00:00:00
FILE “06 -.wav” WAVE
TRACK 06 AUDIO
TITLE ” ”
INDEX 01 00:00:00
FILE “07 – MFC.wav” WAVE
TRACK 07 AUDIO
TITLE “MFC”
INDEX 01 00:00:00
FILE “08 – Go.wav” WAVE
TRACK 08 AUDIO
TITLE “Go”
INDEX 01 00:00:00
FILE “09 – Red Mosquito.wav” WAVE
TRACK 09 AUDIO
TITLE “Red Mosquito”
INDEX 01 00:00:00
FILE “10 – Even Flow.wav” WAVE
TRACK 10 AUDIO
TITLE “Even Flow”
INDEX 01 00:00:00
FILE “11 – Off He Goes.wav” WAVE
TRACK 11 AUDIO
TITLE “Off He Goes”
INDEX 01 00:00:00
FILE “12 – Nothingman.wav” WAVE
TRACK 12 AUDIO
TITLE “Nothingman”
INDEX 01 00:00:00
FILE “13 – Do The Evolution.wav” WAVE
TRACK 13 AUDIO
TITLE “Do The Evolution”
INDEX 01 00:00:00
FILE “14 – Better Man.wav” WAVE
TRACK 14 AUDIO
TITLE “Better Man”
INDEX 01 00:00:00
FILE “15 – Black.wav” WAVE
TRACK 15 AUDIO
TITLE “Black”
INDEX 01 00:00:00
FILE “16 – Fuckin’ Up.wav” WAVE
TRACK 16 AUDIO
TITLE “Fuckin’ Up”
INDEX 01 00:00:00


Leave a Reply

Your email address will not be published. Required fields are marked *

This site uses Akismet to reduce spam. Learn how your comment data is processed.