Pearl Jam – Binaural (Limited Japanese Edition)




[Total: 0    Average: 0/5]

Artist: Pearl Jam
Year: 2000
Genre: Rock
Notes: Discogs
Add. Notes: Limited Japanese Edition
Cover incl.: Yes
Encoder: FLAC
Bitrate: ~800 kBit/s (44.1 kHz/16 Bit/s)
Log & Cue incl.: Yes
Size: 404,6 MB
Password: “slam” (without ” “)


All Downloads/Hosters are compatible

Download 1
KatFile.com
Share-online.biz
Rapidgator.net
Usersdrive.com
Download 2
KatFile.com
Share-online.biz
Rapidgator.net
Usersdrive.com

Tracklist:

1-1 - Breakerfall - 2:19
1-2 - Gods' Dice - 2:26
1-3 - Evacuation - 2:56
1-4 - Light Years - 5:06
1-5 - Nothing As It Seems - 5:27
1-6 - Thin Air - 3:32
1-7 - Insignificance - 4:28
1-8 - Of The Girl - 5:07
1-9 - Grievance - 3:14
1-10 - Rival - 3:38
1-11 - Sleight Of Hand - 4:47
1-12 - Soon Forget - 1:46
1-13 - Parting Ways - 7:17
Bonus CD
2-1 - Footsteps (Live) - 5:25
2-2 - Better Man (Live) - 4:37

EAC-Log, CUE-Sheed & NFO:

Click to open spoiler
Exact Audio Copy V0.99 prebeta 5 from 4. May 2009

EAC extraction logfile from 19. March 2010, 12:30

Pearl Jam / Binaural

Used drive : HL-DT-STDVDRAM GSA-H42N Adapter: 0 ID: 0

Read mode : Secure
Utilize accurate stream : Yes
Defeat audio cache : Yes
Make use of C2 pointers : No

Read offset correction : 667
Overread into Lead-In and Lead-Out : No
Fill up missing offset samples with silence : Yes
Delete leading and trailing silent blocks : No
Null samples used in CRC calculations : Yes
Used interface : Native Win32 interface for Win NT & 2000
Gap handling : Appended to previous track

Used output format : User Defined Encoder
Selected bitrate : 128 kBit/s
Quality : High
Add ID3 tag : No
Command line compressor : C:\Program Files\Exact Audio Copy\Flac\flac.exe
Additional command line options : -8 -V -T “ARTIST=%a” -T “TITLE=%t” -T “ALBUM=%g” -T “DATE=%y” -T “TRACKNUMBER=%n” -T “GENRE=%m” -T “COMMENT=EAC FLAC -8” %s

TOC of the extracted CD

Track | Start | Length | Start sector | End sector
———————————————————
1 | 0:00.00 | 2:19.42 | 0 | 10466
2 | 2:19.42 | 2:26.03 | 10467 | 21419
3 | 4:45.45 | 2:56.00 | 21420 | 34619
4 | 7:41.45 | 5:06.72 | 34620 | 57641
5 | 12:48.42 | 5:22.73 | 57642 | 81864
6 | 18:11.40 | 3:32.47 | 81865 | 97811
7 | 21:44.12 | 4:28.20 | 97812 | 117931
8 | 26:12.32 | 5:07.20 | 117932 | 140976
9 | 31:19.52 | 3:14.57 | 140977 | 155583
10 | 34:34.34 | 3:38.38 | 155584 | 171971
11 | 38:12.72 | 4:47.65 | 171972 | 193561
12 | 43:00.62 | 1:46.40 | 193562 | 201551
13 | 44:47.27 | 7:17.25 | 201552 | 234351

Track 1

Filename E:\Pearl Jam\[studio]\Pearl Jam – 2000 – Binaural (Japan, Sony, SRCS 2298-9]\01 – Breakerfall.wav

Pre-gap length 0:00:02.00

Peak level 98.8 %
Track quality 100.0 %
Test CRC DA9D335A
Copy CRC DA9D335A
Accurately ripped (confidence 2) [9CD68256]
Copy OK

Track 2

Filename E:\Pearl Jam\[studio]\Pearl Jam – 2000 – Binaural (Japan, Sony, SRCS 2298-9]\02 – Gods’ Dice.wav

Peak level 98.8 %
Track quality 100.0 %
Test CRC 0C8F9E16
Copy CRC 0C8F9E16
Accurately ripped (confidence 2) [E0238D21]
Copy OK

Track 3

Filename E:\Pearl Jam\[studio]\Pearl Jam – 2000 – Binaural (Japan, Sony, SRCS 2298-9]\03 – Evacuation.wav

Peak level 98.8 %
Track quality 99.9 %
Test CRC BDB39425
Copy CRC BDB39425
Accurately ripped (confidence 2) [D6BE761C]
Copy OK

Track 4

Filename E:\Pearl Jam\[studio]\Pearl Jam – 2000 – Binaural (Japan, Sony, SRCS 2298-9]\04 – Light Years.wav

Peak level 98.8 %
Track quality 100.0 %
Test CRC A51DEDD2
Copy CRC A51DEDD2
Accurately ripped (confidence 2) [7C71C2F5]
Copy OK

Track 5

Filename E:\Pearl Jam\[studio]\Pearl Jam – 2000 – Binaural (Japan, Sony, SRCS 2298-9]\05 – Nothing As It Seems.wav

Peak level 98.8 %
Track quality 100.0 %
Test CRC 97D91D7A
Copy CRC 97D91D7A
Accurately ripped (confidence 2) [C2628039]
Copy OK

Track 6

Filename E:\Pearl Jam\[studio]\Pearl Jam – 2000 – Binaural (Japan, Sony, SRCS 2298-9]\06 – Thin Air.wav

Pre-gap length 0:00:01.57

Peak level 98.8 %
Track quality 100.0 %
Test CRC 99494EDC
Copy CRC 99494EDC
Accurately ripped (confidence 2) [FDC80A1E]
Copy OK

Track 7

Filename E:\Pearl Jam\[studio]\Pearl Jam – 2000 – Binaural (Japan, Sony, SRCS 2298-9]\07 – Insignificance.wav

Peak level 98.8 %
Track quality 100.0 %
Test CRC 722FA615
Copy CRC 722FA615
Accurately ripped (confidence 2) [0FC3DBEE]
Copy OK

Track 8

Filename E:\Pearl Jam\[studio]\Pearl Jam – 2000 – Binaural (Japan, Sony, SRCS 2298-9]\08 – Of The Girl.wav

Peak level 98.8 %
Track quality 100.0 %
Test CRC 15F425EF
Copy CRC 15F425EF
Accurately ripped (confidence 2) [9AD0D32F]
Copy OK

Track 9

Filename E:\Pearl Jam\[studio]\Pearl Jam – 2000 – Binaural (Japan, Sony, SRCS 2298-9]\09 – Grievance.wav

Peak level 98.9 %
Track quality 100.0 %
Test CRC 444C23DD
Copy CRC 444C23DD
Accurately ripped (confidence 2) [5BE8671B]
Copy OK

Track 10

Filename E:\Pearl Jam\[studio]\Pearl Jam – 2000 – Binaural (Japan, Sony, SRCS 2298-9]\10 – Rival.wav

Peak level 98.8 %
Track quality 99.9 %
Test CRC 963B52BE
Copy CRC 963B52BE
Accurately ripped (confidence 2) [8428E79F]
Copy OK

Track 11

Filename E:\Pearl Jam\[studio]\Pearl Jam – 2000 – Binaural (Japan, Sony, SRCS 2298-9]\11 – Sleight Of Hand.wav

Peak level 98.8 %
Track quality 99.9 %
Test CRC 53CC7D0A
Copy CRC 53CC7D0A
Accurately ripped (confidence 2) [2D03643F]
Copy OK

Track 12

Filename E:\Pearl Jam\[studio]\Pearl Jam – 2000 – Binaural (Japan, Sony, SRCS 2298-9]\12 – Soon Forget.wav

Peak level 90.1 %
Track quality 100.0 %
Test CRC 1D069354
Copy CRC 1D069354
Accurately ripped (confidence 2) [D4DBA966]
Copy OK

Track 13

Filename E:\Pearl Jam\[studio]\Pearl Jam – 2000 – Binaural (Japan, Sony, SRCS 2298-9]\13 – Parting Ways.wav

Peak level 100.0 %
Track quality 99.9 %
Test CRC 342437DB
Copy CRC 342437DB
Accurately ripped (confidence 2) [5B6EEB21]
Copy OK

All tracks accurately ripped

No errors occurred

End of status report

REM GENRE Rock
REM DATE 2000
REM DISCID B80C340D
REM COMMENT “ExactAudioCopy v0.99pb5”
PERFORMER “Pearl Jam”
TITLE “Binaural”
FILE “01 – Breakerfall.wav” WAVE
TRACK 01 AUDIO
TITLE “Breakerfall”
PERFORMER “Pearl Jam”
INDEX 01 00:00:00
FILE “02 – Gods’ Dice.wav” WAVE
TRACK 02 AUDIO
TITLE “Gods’ Dice”
PERFORMER “Pearl Jam”
INDEX 01 00:00:00
FILE “03 – Evacuation.wav” WAVE
TRACK 03 AUDIO
TITLE “Evacuation”
PERFORMER “Pearl Jam”
INDEX 01 00:00:00
FILE “04 – Light Years.wav” WAVE
TRACK 04 AUDIO
TITLE “Light Years”
PERFORMER “Pearl Jam”
INDEX 01 00:00:00
FILE “05 – Nothing As It Seems.wav” WAVE
TRACK 05 AUDIO
TITLE “Nothing As It Seems”
PERFORMER “Pearl Jam”
INDEX 01 00:00:00
TRACK 06 AUDIO
TITLE “Thin Air”
PERFORMER “Pearl Jam”
INDEX 00 05:21:30
FILE “06 – Thin Air.wav” WAVE
INDEX 01 00:00:00
FILE “07 – Insignificance.wav” WAVE
TRACK 07 AUDIO
TITLE “Insignificance”
PERFORMER “Pearl Jam”
INDEX 01 00:00:00
FILE “08 – Of The Girl.wav” WAVE
TRACK 08 AUDIO
TITLE “Of The Girl”
PERFORMER “Pearl Jam”
INDEX 01 00:00:00
FILE “09 – Grievance.wav” WAVE
TRACK 09 AUDIO
TITLE “Grievance”
PERFORMER “Pearl Jam”
INDEX 01 00:00:00
FILE “10 – Rival.wav” WAVE
TRACK 10 AUDIO
TITLE “Rival”
PERFORMER “Pearl Jam”
INDEX 01 00:00:00
FILE “11 – Sleight Of Hand.wav” WAVE
TRACK 11 AUDIO
TITLE “Sleight Of Hand”
PERFORMER “Pearl Jam”
INDEX 01 00:00:00
FILE “12 – Soon Forget.wav” WAVE
TRACK 12 AUDIO
TITLE “Soon Forget”
PERFORMER “Pearl Jam”
INDEX 01 00:00:00
FILE “13 – Parting Ways.wav” WAVE
TRACK 13 AUDIO
TITLE “Parting Ways”
PERFORMER “Pearl Jam”
INDEX 01 00:00:00

Exact Audio Copy V0.99 prebeta 5 from 4. May 2009

EAC extraction logfile from 19. March 2010, 12:43

Pearl Jam / Binaural (Bonus Disc)

Used drive : HL-DT-STDVDRAM GSA-H42N Adapter: 0 ID: 0

Read mode : Secure
Utilize accurate stream : Yes
Defeat audio cache : Yes
Make use of C2 pointers : No

Read offset correction : 667
Overread into Lead-In and Lead-Out : No
Fill up missing offset samples with silence : Yes
Delete leading and trailing silent blocks : No
Null samples used in CRC calculations : Yes
Used interface : Native Win32 interface for Win NT & 2000
Gap handling : Appended to previous track

Used output format : User Defined Encoder
Selected bitrate : 128 kBit/s
Quality : High
Add ID3 tag : No
Command line compressor : C:\Program Files\Exact Audio Copy\Flac\flac.exe
Additional command line options : -8 -V -T “ARTIST=%a” -T “TITLE=%t” -T “ALBUM=%g” -T “DATE=%y” -T “TRACKNUMBER=%n” -T “GENRE=%m” -T “COMMENT=EAC FLAC -8” %s

TOC of the extracted CD

Track | Start | Length | Start sector | End sector
———————————————————
1 | 0:00.00 | 5:24.47 | 0 | 24346
2 | 5:24.47 | 4:37.05 | 24347 | 45126

Track 1

Filename E:\Pearl Jam\[studio]\Pearl Jam – 2000 – Binaural (Japan, Sony, SRCS 2298-9]\Bonus Disc\01 – Footsteps (Live).wav

Pre-gap length 0:00:02.00

Peak level 100.0 %
Track quality 100.0 %
Test CRC B491983B
Copy CRC B491983B
Accurately ripped (confidence 1) [E19329F0]
Copy OK

Track 2

Filename E:\Pearl Jam\[studio]\Pearl Jam – 2000 – Binaural (Japan, Sony, SRCS 2298-9]\Bonus Disc\02 – Better Man (Live).wav

Peak level 99.8 %
Track quality 100.0 %
Test CRC 805F33F0
Copy CRC 805F33F0
Accurately ripped (confidence 1) [DE1C9B27]
Copy OK

All tracks accurately ripped

No errors occurred

End of status report

REM GENRE Rock
REM DATE 2000
REM DISCID 0D025902
REM COMMENT ExactAudioCopy v0.99pb5
PERFORMER “Pearl Jam”
TITLE “Binaural (SRCS-2299) Bonus Disc”
FILE “01 – Footsteps (Live).wav” WAVE
TRACK 01 AUDIO
TITLE “Footsteps (Live)”
INDEX 01 00:00:00
FILE “02 – Better Man (Live).wav” WAVE
TRACK 02 AUDIO
TITLE “Better Man (Live)”
INDEX 01 00:00:00


Spread the Download

Leave a Reply

Your email address will not be published. Required fields are marked *

Enter the text from the image below
 

This site uses Akismet to reduce spam. Learn how your comment data is processed.