Paul McCartney – Working Classical




No Cover available

Artist: Paul McCartney
Year: 1999
Genre: Rock
Notes: Discogs
Add. Notes:
Watch Songs on: YouTube
Cover incl.: Yes
Encoder: FLAC
Bitrate: ~700 kBit/s (44.1 kHz/16 Bit/s)
Log & Cue incl.: Yes/Yes
Size: 266,1 MB
Password: “slam” (without ” “)


All Downloads/Hosters are compatible

Download 1
KatFile.com
Turbobit.net
FileFactory.com
Rapidgator.net
Download 2
KatFile.com
Turbobit.net
FileFactory.com
Rapidgator.net

Tracklist:

1. The Loma Mar Quartet - Junk - 2:49
2. The London Symphony Orchestra - A Leaf - 11:08
3. The Loma Mar Quartet - Haymakers - 3:33
4. The Loma Mar Quartet - Midwife - 3:33
5. The London Symphony Orchestra - Spiral - 10:02
6. The Loma Mar Quartet - Warm And Beautiful - 2:31
7. The Loma Mar Quartet - My Love - 3:48
8. The Loma Mar Quartet - Maybe I'm Amazed - 2:04
9. The Loma Mar Quartet - Calico Skies - 1:52
10. The Loma Mar Quartet - Golden Earth Girl - 1:57
11. The Loma Mar Quartet - Somedays - 3:05
12. The London Symphony Orchestra - Tuesday - 12:26
13. The Loma Mar Quartet - She's My Baby - 1:47
14. The Loma Mar Quartet - The Lovely Linda - 0:54

EAC-Log, CUE-Sheed & NFO:

Click to open spoiler
Exact Audio Copy V0.99 prebeta 5 from 4. May 2009

Отчёт EAC об извлечении, выполненном 28. февраля 2011, 16:20

Paul McCartney / Working Classical.

Дисковод: Optiarc DVD RW AD-7240S Adapter: 1 ID: 0

Режим чтения : Достоверность
Использование точного потока : Да
Отключение кэша аудио : Да
Использование указателей C2 : Нет

Коррекция смещения при чтении : 48
Способность читать области Lead-in и Lead-out : Нет
Заполнение пропущенных сэмплов тишиной : Да
Удаление блоков с тишиной в начале и конце : Нет
При вычислениях CRC использовались нулевые сэмплы : Да
Интерфейс : Встроенный Win32-интерфейс для Win NT/2000

Выходной формат : Пользовательский кодировщик
Выбранный битрейт : 768 kBit/s
Качество : Высокий
Добавление ID3-тэга : Нет
Утилита сжатия : C:\Program Files\Exact Audio Copy\FLAC\FLAC.EXE
Дополнительные параметры : -6 -V -T “ARTIST=%a” -T “TITLE=%t” -T “ALBUM=%g” -T “DATE=%y” -T “TRACKNUMBER=%n” -T “GENRE=%m” -T “COMMENT=%e” %s -o %d

TOC извлечённого CD

Трек | Старт | Длительность | Начальный сектор | Конечный сектор
———————————————————————
1 | 0:00.00 | 2:49.02 | 0 | 12676
2 | 2:49.02 | 11:08.13 | 12677 | 62789
3 | 13:57.15 | 3:33.35 | 62790 | 78799
4 | 17:30.50 | 3:33.40 | 78800 | 94814
5 | 21:04.15 | 10:01.67 | 94815 | 139956
6 | 31:06.07 | 2:31.35 | 139957 | 151316
7 | 33:37.42 | 3:47.68 | 151317 | 168409
8 | 37:25.35 | 2:04.30 | 168410 | 177739
9 | 39:29.65 | 1:52.35 | 177740 | 186174
10 | 41:22.25 | 1:57.22 | 186175 | 194971
11 | 43:19.47 | 3:04.68 | 194972 | 208839
12 | 46:24.40 | 12:26.42 | 208840 | 264831
13 | 58:51.07 | 1:47.25 | 264832 | 272881
14 | 60:38.32 | 0:54.58 | 272882 | 276989

Характеристики диапазона извлечения и сообщения об ошибках

Выбранный диапазон

Имя файла E:\Paul McCartney\1999 Working Classical\Paul McCartney – Working Classical..wav

Пиковый уровень 98.8 %
Качество диапазона 99.9 %
CRC теста 6B2CF16F
CRC копии 6B2CF16F
Копирование… OK

Ошибок не произошло

AccurateRip: сводка

Трек 1 точное извлечение (доверие 9) [9D112051]
Трек 2 точное извлечение (доверие 9) [C5493201]
Трек 3 точное извлечение (доверие 9) [A417822E]
Трек 4 точное извлечение (доверие 9) [B2C4F842]
Трек 5 точное извлечение (доверие 9) [4A6FC2F8]
Трек 6 точное извлечение (доверие 9) [5FA02724]
Трек 7 точное извлечение (доверие 9) [21E35E20]
Трек 8 точное извлечение (доверие 9) [0B694D67]
Трек 9 точное извлечение (доверие 9) [07ACE5B5]
Трек 10 точное извлечение (доверие 9) [3B43D5E1]
Трек 11 точное извлечение (доверие 9) [8C7015C4]
Трек 12 точное извлечение (доверие 8) [7C65A991]
Трек 13 точное извлечение (доверие 8) [5E7E7EDA]
Трек 14 точное извлечение (доверие 8) [B60DF100]

Все треки извлечены точно

Конец отчёта

REM GENRE Classical
REM DATE 1999
REM DISCID C20E6D0E
REM COMMENT “ExactAudioCopy v0.99pb5”
PERFORMER “Paul McCartney”
TITLE “Working Classical.”
FILE “Paul McCartney – Working Classical.” WAVE
TRACK 01 AUDIO
TITLE “Junk”
PERFORMER “Paul McCartney”
INDEX 01 00:00:00
TRACK 02 AUDIO
TITLE “A Leaf”
PERFORMER “Paul McCartney”
INDEX 01 02:49:02
TRACK 03 AUDIO
TITLE “Haymakers”
PERFORMER “Paul McCartney”
INDEX 01 13:57:15
TRACK 04 AUDIO
TITLE “Midwife”
PERFORMER “Paul McCartney”
INDEX 01 17:30:50
TRACK 05 AUDIO
TITLE “Spiral”
PERFORMER “Paul McCartney”
INDEX 01 21:04:15
TRACK 06 AUDIO
TITLE “Warm And Beautiful”
PERFORMER “Paul McCartney”
INDEX 01 31:06:07
TRACK 07 AUDIO
TITLE “My Love”
PERFORMER “Paul McCartney”
INDEX 01 33:37:42
TRACK 08 AUDIO
TITLE “Maybe I’m Amazed”
PERFORMER “Paul McCartney”
INDEX 01 37:25:35
TRACK 09 AUDIO
TITLE “Calico Skies”
PERFORMER “Paul McCartney”
INDEX 01 39:29:65
TRACK 10 AUDIO
TITLE “Golden Earth Girl”
PERFORMER “Paul McCartney”
INDEX 01 41:22:25
TRACK 11 AUDIO
TITLE “Somedays”
PERFORMER “Paul McCartney”
INDEX 01 43:19:47
TRACK 12 AUDIO
TITLE “Tuesday”
PERFORMER “Paul McCartney”
INDEX 01 46:24:40
TRACK 13 AUDIO
TITLE “She’s My Baby”
PERFORMER “Paul McCartney”
INDEX 01 58:51:07
TRACK 14 AUDIO
TITLE “The Lovely Linda”
PERFORMER “Paul McCartney”
INDEX 01 60:38:32


Leave a Reply

Your email address will not be published. Required fields are marked *

Enter the text from the image below
 

This site uses Akismet to reduce spam. Learn how your comment data is processed.