Paul McCartney & Wings – Band On The Run (Remastered)




Artist: Paul McCartney & Wings
Year: 1973/1993
Genre: Rock
Notes: Discogs
Add. Notes: Remastered
Cover incl.: Yes
Encoder: FLAC
Bitrate: ~800 kBit/s (44.1 kHz/16 Bit/s)
Log & Cue incl.: Yes
Size: 343 MB
Password: “slam” (without ” “)


All Downloads/Hosters are compatible

Download 1
KatFile.com
Turbobit.net
FileFactory.com
Rapidgator.net
Download 2
KatFile.com
Turbobit.net
FileFactory.com
Rapidgator.net

Tracklist:

1. Band On The Run
2. Jet
3. Bluebird
4. Mrs. Vandebilt
5. Let Me Roll It
6. Mamunia
7. No Words
8. Helen Wheels
9. Picasso's Last Words (Drink To Me)
10. Nineteen Hundred And Eighty 
Five

EAC-Log, CUE-Sheed & NFO:

Click to open spoiler
Exact Audio Copy V0.99 prebeta 5 from 4. May 2009

Отчёт EAC об извлечении, выполненном 30. января 2011, 21:20

Paul McCartney & Wings / Band on the Run (DCC GZS-1030)

Дисковод: Optiarc DVD RW AD-7240S Adapter: 1 ID: 0

Режим чтения : Достоверность
Использование точного потока : Да
Отключение кэша аудио : Да
Использование указателей C2 : Нет

Коррекция смещения при чтении : 48
Способность читать области Lead-in и Lead-out : Нет
Заполнение пропущенных сэмплов тишиной : Да
Удаление блоков с тишиной в начале и конце : Нет
При вычислениях CRC использовались нулевые сэмплы : Да
Интерфейс : Встроенный Win32-интерфейс для Win NT/2000

Выходной формат : Пользовательский кодировщик
Выбранный битрейт : 768 kBit/s
Качество : Высокий
Добавление ID3-тэга : Нет
Утилита сжатия : C:\Program Files\Exact Audio Copy\FLAC\FLAC.EXE
Дополнительные параметры : -6 -V -T “ARTIST=%a” -T “TITLE=%t” -T “ALBUM=%g” -T “DATE=%y” -T “TRACKNUMBER=%n” -T “GENRE=%m” -T “COMMENT=%e” %s -o %d

TOC извлечённого CD

Трек | Старт | Длительность | Начальный сектор | Конечный сектор
———————————————————————
1 | 0:00.00 | 5:13.17 | 0 | 23491
2 | 5:13.17 | 4:09.10 | 23492 | 42176
3 | 9:22.27 | 3:25.20 | 42177 | 57571
4 | 12:47.47 | 4:41.58 | 57572 | 78704
5 | 17:29.30 | 4:51.02 | 78705 | 100531
6 | 22:20.32 | 4:51.48 | 100532 | 122404
7 | 27:12.05 | 2:34.60 | 122405 | 134014
8 | 29:46.65 | 3:47.05 | 134015 | 151044
9 | 33:33.70 | 5:51.05 | 151045 | 177374
10 | 39:25.00 | 5:29.00 | 177375 | 202049

Характеристики диапазона извлечения и сообщения об ошибках

Выбранный диапазон

Имя файла E:\music\Музон\McCartney-Gold\Band on the Run\Paul McCartney & Wings – Band on the Run (DCC GZS-1030).wav

Пиковый уровень 100.0 %
Качество диапазона 100.0 %
CRC теста DF6E7BD4
CRC копии DF6E7BD4
Копирование… OK

Ошибок не произошло

AccurateRip: сводка

Трек 1 точное извлечение (доверие 29) [7D3CB37B]
Трек 2 точное извлечение (доверие 29) [D8057F29]
Трек 3 точное извлечение (доверие 30) [D448EB8A]
Трек 4 точное извлечение (доверие 28) [3F5ACD9C]
Трек 5 точное извлечение (доверие 28) [06848FDF]
Трек 6 точное извлечение (доверие 28) [4360018D]
Трек 7 точное извлечение (доверие 28) [63A1D4DF]
Трек 8 точное извлечение (доверие 28) [C47CC0D8]
Трек 9 точное извлечение (доверие 28) [5BAD149E]
Трек 10 точное извлечение (доверие 28) [E98B7467]

Все треки извлечены точно

Конец отчёта

REM GENRE Rock
REM DATE 1973
REM DISCID 810A860A
REM COMMENT “ExactAudioCopy v0.99pb5”
PERFORMER “Paul McCartney & Wings”
TITLE “Band on the Run (DCC GZS-1030)”
FILE “Paul McCartney & Wings – Band on the Run (DCC GZS-1030).flac” WAVE
TRACK 01 AUDIO
TITLE “Band on the Run”
PERFORMER “Paul McCartney & Wings”
INDEX 01 00:00:00
TRACK 02 AUDIO
TITLE “Jet”
PERFORMER “Paul McCartney & Wings”
INDEX 00 05:12:65
INDEX 01 05:13:17
TRACK 03 AUDIO
TITLE “Bluebird”
PERFORMER “Paul McCartney & Wings”
INDEX 00 09:21:27
INDEX 01 09:22:27
TRACK 04 AUDIO
TITLE “Mrs. Vandebilt”
PERFORMER “Paul McCartney & Wings”
INDEX 00 12:45:60
INDEX 01 12:47:47
TRACK 05 AUDIO
TITLE “Let Me Roll It”
PERFORMER “Paul McCartney & Wings”
INDEX 00 17:28:62
INDEX 01 17:29:30
TRACK 06 AUDIO
TITLE “Mamunia”
PERFORMER “Paul McCartney & Wings”
INDEX 00 22:16:45
INDEX 01 22:20:32
TRACK 07 AUDIO
TITLE “No Words”
PERFORMER “Paul McCartney & Wings”
INDEX 01 27:12:05
TRACK 08 AUDIO
TITLE “Helen Wheels”
PERFORMER “Paul McCartney & Wings”
INDEX 00 29:45:55
INDEX 01 29:46:65
TRACK 09 AUDIO
TITLE “Picasso’s Last Words (Drink to Me)”
PERFORMER “Paul McCartney & Wings”
INDEX 00 33:33:00
INDEX 01 33:33:70
TRACK 10 AUDIO
TITLE “Nineteen Hundred and Eighty Five”
PERFORMER “Paul McCartney & Wings”
INDEX 00 39:24:02
INDEX 01 39:25:00


Leave a Reply

Your email address will not be published. Required fields are marked *

This site uses Akismet to reduce spam. Learn how your comment data is processed.