Paul McCartney & Wings – Venus And Mars (Remastered)




No Cover available

Artist: Paul McCartney & Wings
Year: 1975/1994
Genre: Rock
Notes: Discogs
Add. Notes: Remastered
Watch Songs on: YouTube
Cover incl.: Yes
Encoder: FLAC
Bitrate: ~800 kBit/s (44.1 kHz/16 Bit/s)
Log & Cue incl.: Yes/Yes
Size: 484 MB
Password: “slam” (without ” “)


All Downloads/Hosters are compatible

Download 1
KatFile.com
Turbobit.net
FileFactory.com
Rapidgator.net
Download 2
KatFile.com
Turbobit.net
FileFactory.com
Rapidgator.net

Tracklist:

1 Venus And Mars 
2 Rock Show 
3 Love In Song 
4 You Gave Me The Answer 
5 Magneto And Titanium Man 
6 Letting Go 
7 Venus And Mars Reprise 
8 Spirits Of Ancient Egypt 
9 Medicine Jar 
10 Call Me Back Again 
11 Listen To What The Man Said 
12 Treat Her Gently - Lonely Old 
People 
13 Crossroads 

Bonus Tracks
14 Zoo Gang 
15 Lunch Box / Odd Sox 
16 My Carnival

EAC-Log, CUE-Sheed & NFO:

Click to open spoiler
Exact Audio Copy V1.0 beta 1 from 15. November 2010

EAC extraction logfile from 19. January 2011, 12:48

Wings / Venus And Mars (CDP 7 46984 2)

Used drive : TEAC DV-W516GDM Adapter: 0 ID: 1

Read mode : Secure
Utilize accurate stream : Yes
Defeat audio cache : Yes
Make use of C2 pointers : No

Read offset correction : 6
Overread into Lead-In and Lead-Out : No
Fill up missing offset samples with silence : Yes
Delete leading and trailing silent blocks : No
Null samples used in CRC calculations : Yes
Used interface : Native Win32 interface for Win NT & 2000

Used output format : User Defined Encoder
Selected bitrate : 896 kBit/s
Quality : High
Add ID3 tag : No
Command line compressor : C:\Program Files\Exact Audio Copy 1.0\Flac\flac.exe
Additional command line options : -8 -V %s

TOC of the extracted CD

Track | Start | Length | Start sector | End sector
———————————————————
1 | 0:00.33 | 1:19.70 | 33 | 6027
2 | 1:20.28 | 5:31.42 | 6028 | 30894
3 | 6:51.70 | 3:03.45 | 30895 | 44664
4 | 9:55.40 | 2:14.63 | 44665 | 54777
5 | 12:10.28 | 3:16.15 | 54778 | 69492
6 | 15:26.43 | 4:32.42 | 69493 | 89934
7 | 19:59.10 | 2:05.38 | 89935 | 99347
8 | 22:04.48 | 2:58.52 | 99348 | 112749
9 | 25:03.25 | 3:37.13 | 112750 | 129037
10 | 28:40.38 | 4:59.35 | 129038 | 151497
11 | 33:39.73 | 4:00.65 | 151498 | 169562
12 | 37:40.63 | 4:23.60 | 169563 | 189347
13 | 42:04.48 | 1:01.45 | 189348 | 193967
14 | 43:06.18 | 2:00.30 | 193968 | 202997
15 | 45:06.48 | 3:52.37 | 202998 | 220434
16 | 48:59.10 | 3:58.23 | 220435 | 238307

Range status and errors

Selected range

Filename C:\Olaf der Weisse\Wings . 1975 . Venus And Mars (CDP 7 46984 2)\Wings – Venus And Mars (CDP 7 46984 2).wav

Peak level 97.7 %
Extraction speed 0.1 X
Range quality 100.0 %
Test CRC 642A88A5
Copy CRC 642A88A5
Copy OK

No errors occurred

AccurateRip summary

Track 1 accurately ripped (confidence 4) [874A6237]
Track 2 accurately ripped (confidence 4) [30B5B5CB]
Track 3 accurately ripped (confidence 4) [83A3920D]
Track 4 accurately ripped (confidence 4) [76335F4F]
Track 5 accurately ripped (confidence 4) [471B5510]
Track 6 accurately ripped (confidence 4) [146087AB]
Track 7 accurately ripped (confidence 4) [9EE6F069]
Track 8 accurately ripped (confidence 4) [F9083DA1]
Track 9 accurately ripped (confidence 4) [F7512389]
Track 10 accurately ripped (confidence 4) [98BFFF8F]
Track 11 accurately ripped (confidence 4) [0EA4B41C]
Track 12 accurately ripped (confidence 4) [4AB5381C]
Track 13 accurately ripped (confidence 4) [76D547D0]
Track 14 accurately ripped (confidence 4) [95A2BBCA]
Track 15 accurately ripped (confidence 4) [42247E8C]
Track 16 accurately ripped (confidence 4) [88EAD082]

All tracks accurately ripped

End of status report

==== Log checksum 80772D4AA82788FACD3545C52BEAFB0C5D74A59216A327D1C79AFDF1006BE41E ====

REM GENRE Rock
REM DATE 1975
REM DISCID C70C6910
REM COMMENT “ExactAudioCopy v1.0b1”
PERFORMER “Wings”
TITLE “Venus And Mars (CDP 7 46984 2)”
FILE “Wings – Venus And Mars (CDP 7 46984 2).flac” WAVE
TRACK 01 AUDIO
TITLE “Venus And Mars”
PERFORMER “Wings”
INDEX 00 00:00:00
INDEX 01 00:00:33
TRACK 02 AUDIO
TITLE “Rock Show”
PERFORMER “Wings”
INDEX 00 01:20:25
INDEX 01 01:20:28
TRACK 03 AUDIO
TITLE “Love In Song”
PERFORMER “Wings”
INDEX 00 06:51:68
INDEX 01 06:51:70
TRACK 04 AUDIO
TITLE “You Gave Me The Answer”
PERFORMER “Wings”
INDEX 00 09:55:38
INDEX 01 09:55:40
TRACK 05 AUDIO
TITLE “Magneto And Titanium Man”
PERFORMER “Wings”
INDEX 00 12:10:25
INDEX 01 12:10:28
TRACK 06 AUDIO
TITLE “Letting Go”
PERFORMER “Wings”
INDEX 00 15:26:40
INDEX 01 15:26:43
TRACK 07 AUDIO
TITLE “Venus And Mars (Reprise)”
PERFORMER “Wings”
INDEX 00 19:59:08
INDEX 01 19:59:10
TRACK 08 AUDIO
TITLE “Spirits Of Ancient Egypt”
PERFORMER “Wings”
INDEX 00 22:04:45
INDEX 01 22:04:48
TRACK 09 AUDIO
TITLE “Medicine Jar”
PERFORMER “Wings”
INDEX 00 25:03:23
INDEX 01 25:03:25
TRACK 10 AUDIO
TITLE “Call Me Back Again”
PERFORMER “Wings”
INDEX 00 28:40:35
INDEX 01 28:40:38
TRACK 11 AUDIO
TITLE “Listen To What The Man Said”
PERFORMER “Wings”
INDEX 00 33:39:70
INDEX 01 33:39:73
TRACK 12 AUDIO
TITLE “Treat Her Gently (Lonely Old People)”
PERFORMER “Wings”
INDEX 00 37:40:60
INDEX 01 37:40:63
TRACK 13 AUDIO
TITLE “Crossroads Theme”
PERFORMER “Wings”
INDEX 00 42:01:63
INDEX 01 42:04:48
TRACK 14 AUDIO
TITLE “Zoo Gang (Bonus Track)”
PERFORMER “Wings”
INDEX 00 43:05:53
INDEX 01 43:06:18
TRACK 15 AUDIO
TITLE “Lunch Box – Odd Sox (Bonus Track)”
PERFORMER “Wings”
INDEX 00 45:05:50
INDEX 01 45:06:48
TRACK 16 AUDIO
TITLE “My Carnival (Bonus Track)”
PERFORMER “Wings”
INDEX 00 48:58:10
INDEX 01 48:59:10


Leave a Reply

Your email address will not be published. Required fields are marked *

Enter the text from the image below
 

This site uses Akismet to reduce spam. Learn how your comment data is processed.