Paul McCartney – Tug of War (Reissue)




No Cover available

Artist: Paul McCartney
Year: 1982/1988
Genre: Rock
Notes: Discogs
Add. Notes: Reissue
Cover incl.: Yes
Encoder: FLAC
Bitrate: ~900 kBit/s (44.1 kHz/16 Bit/s)
Log & Cue incl.: Yes/Yes
Size: 311,9 MB
Password: “slam” (without ” “)


All Downloads/Hosters are compatible

Download 1
KatFile.com
Turbobit.net
FileFactory.com
Rapidgator.net
Download 2
KatFile.com
Turbobit.net
FileFactory.com
Rapidgator.net

Tracklist:

1 Tug Of War 4:21
2 Take It Away 4:16
3 Somebody Who Cares 3:19
4 What's That You're Doing? 6:21
5 Here Today 2:27
6 Ballroom Dancing 4:08
7 The Pound Is Sinking 2:55
8 Wanderlust 3:49
9 Get It 2:29
10 Be What You See (Link) 0:33
11 Dress Me Up As A Robber 2:41
12 Ebony And Ivory 3:44

EAC-Log, CUE-Sheed & NFO:

Click to open spoiler
Exact Audio Copy V0.99 prebeta 4 from 23. January 2008

EAC extraction logfile from 11. March 2010, 19:35

Paul McCartney / Tug of War (CDP 7 46057 2)

Used drive : PIONEER DVD-RW DVR-105 Adapter: 0 ID: 1

Read mode : Secure
Utilize accurate stream : Yes
Defeat audio cache : Yes
Make use of C2 pointers : No

Read offset correction : 48
Overread into Lead-In and Lead-Out : No
Fill up missing offset samples with silence : Yes
Delete leading and trailing silent blocks : No
Null samples used in CRC calculations : Yes
Used interface : Installed external ASPI interface

Used output format : User Defined Encoder
Selected bitrate : 768 kBit/s
Quality : High
Add ID3 tag : No
Command line compressor : C:\Program Files\Exact Audio Copy\Flac\flac.exe
Additional command line options : -8 -V -T “ARTIST=%a” -T “TITLE=%t” -T “ALBUM=%g” -T “DATE=%y” -T “TRACKNUMBER=%n” -T “GENRE=%m” -T “COMMENT=%e” %s -o %d

TOC of the extracted CD

Track | Start | Length | Start sector | End sector
———————————————————
1 | 0:00.33 | 4:22.15 | 33 | 19697
2 | 4:22.48 | 4:16.17 | 19698 | 38914
3 | 8:38.65 | 3:19.00 | 38915 | 53839
4 | 11:57.65 | 6:22.63 | 53840 | 82552
5 | 18:20.53 | 2:29.02 | 82553 | 93729
6 | 20:49.55 | 4:08.28 | 93730 | 112357
7 | 24:58.08 | 2:55.22 | 112358 | 125504
8 | 27:53.30 | 3:49.05 | 125505 | 142684
9 | 31:42.35 | 2:28.33 | 142685 | 153817
10 | 34:10.68 | 0:34.02 | 153818 | 156369
11 | 34:44.70 | 2:42.40 | 156370 | 168559
12 | 37:27.35 | 3:43.03 | 168560 | 185287

Range status and errors

Selected range

Filename C:\Paul McCartney . 1982 . Tug of War (CDP 7 46057 2)\Paul McCartney . 1982 . Tug of War (CDP 7 46057 2).wav

Peak level 97.7 %
Range quality 100.0 %
Test CRC 11AD8E86
Copy CRC 11AD8E86
Copy OK

No errors occurred

AccurateRip summary

Track 1 accurately ripped (confidence 13) [44A0C5B1]
Track 2 accurately ripped (confidence 11) [A2A5E036]
Track 3 accurately ripped (confidence 12) [25A7655B]
Track 4 accurately ripped (confidence 12) [48066FA8]
Track 5 accurately ripped (confidence 13) [14F48B48]
Track 6 accurately ripped (confidence 13) [CE2F7B08]
Track 7 accurately ripped (confidence 12) [A0180810]
Track 8 accurately ripped (confidence 13) [40C91211]
Track 9 accurately ripped (confidence 12) [F14A3AE0]
Track 10 accurately ripped (confidence 12) [85E613F5]
Track 11 accurately ripped (confidence 13) [0CE531E8]
Track 12 accurately ripped (confidence 12) [C66FC566]

All tracks accurately ripped

End of status report

REM GENRE BritPop
REM DATE 1982
REM DISCID 8409A60C
REM COMMENT “ExactAudioCopy v0.99pb4”
PERFORMER “Paul McCartney”
TITLE “Tug of War (CDP 7 46057 2)”
FILE “Paul McCartney . 1982 . Tug of War (CDP 7 46057 2).flac” WAVE
TRACK 01 AUDIO
TITLE “Tug of War”
PERFORMER “Paul McCartney”
INDEX 00 00:00:00
INDEX 01 00:00:33
TRACK 02 AUDIO
TITLE “Take It Away”
PERFORMER “Paul McCartney”
INDEX 00 04:22:45
INDEX 01 04:22:48
TRACK 03 AUDIO
TITLE “Somebody Who Cares”
PERFORMER “Paul McCartney”
INDEX 00 08:37:53
INDEX 01 08:38:65
TRACK 04 AUDIO
TITLE “What’s That You’re Doing”
PERFORMER “Paul McCartney”
INDEX 00 11:57:63
INDEX 01 11:57:65
TRACK 05 AUDIO
TITLE “Here Today”
PERFORMER “Paul McCartney”
INDEX 00 18:17:73
INDEX 01 18:20:53
TRACK 06 AUDIO
TITLE “Ballroom Dancing”
PERFORMER “Paul McCartney”
INDEX 00 20:47:58
INDEX 01 20:49:55
TRACK 07 AUDIO
TITLE “The Pound Is Sinking”
PERFORMER “Paul McCartney”
INDEX 00 24:57:15
INDEX 01 24:58:08
TRACK 08 AUDIO
TITLE “Wanderlust”
PERFORMER “Paul McCartney”
INDEX 00 27:51:35
INDEX 01 27:53:30
TRACK 09 AUDIO
TITLE “Get It”
PERFORMER “Paul McCartney”
INDEX 00 31:42:33
INDEX 01 31:42:35
TRACK 10 AUDIO
TITLE “Be What You See (Link)”
PERFORMER “Paul McCartney”
INDEX 00 34:10:65
INDEX 01 34:10:68
TRACK 11 AUDIO
TITLE “Dress Me Up as a Robber”
PERFORMER “Paul McCartney”
INDEX 00 34:44:68
INDEX 01 34:44:70
TRACK 12 AUDIO
TITLE “Ebony And Ivory”
PERFORMER “Paul McCartney”
INDEX 00 37:26:50
INDEX 01 37:27:35


Leave a Reply

Your email address will not be published. Required fields are marked *

Enter the text from the image below
 

This site uses Akismet to reduce spam. Learn how your comment data is processed.