Paul McCartney – The Family Way




Artist: Paul McCartney
Year: 1995
Genre: Rock
Notes: Discogs
Add. Notes:
Cover incl.: Yes
Encoder: FLAC
Bitrate: ~700 kBit/s (44.1 kHz/16 Bit/s)
Log & Cue incl.: Yes
Size: 231 MB
Password: “slam” (without ” “)


All Downloads/Hosters are compatible

Download 1
KatFile.com
Turbobit.net
Rapidgator.net
Download 2
KatFile.com
Turbobit.net
Rapidgator.net

Tracklist:

The Family Way - Variations 
Concertantes Opus 1
1 - Variation No. 1  
2 - Variation No. 2  
3 - Variation No. 3  
4 - Variation No. 4  
5 - Variation No. 5  
6 - Variation No. 6  
7 - Variation No. 7  
8 - Variation No. 8  
9 - Variation No. 9 
Hymn To The Child
10 - Hymn To The Child / L'hymne A 
L'enfant 
Reminiscences
11 - Double March: Theme 
12 - Double March: Variation I  
13 - Double March: Variation II  
14 - Double March: Variation III 
15 - Double March: Variation IV 
16 - Double March: Variation V  
17 - Le Capitane Bonhomme 
18 - Le Pirate Maboule 
19 - Sol Et Gobelet 
20 - Grujot Et Delicat 
21 - Monsieur Surprise 
Children Of Sarajevo
22 - Children Of Sarajevo / Les 
Enfants De Sarajevo

EAC-Log, CUE-Sheed & NFO:

Click to open spoiler
Exact Audio Copy V0.99 prebeta 5 from 4. May 2009

Отчёт EAC об извлечении, выполненном 28. февраля 2011, 17:24

Carl Aubut / Paul McCartney, The Family Way, Variations Concertantes Opus I

Дисковод: Optiarc DVD RW AD-7240S Adapter: 1 ID: 0

Режим чтения : Достоверность
Использование точного потока : Да
Отключение кэша аудио : Да
Использование указателей C2 : Нет

Коррекция смещения при чтении : 48
Способность читать области Lead-in и Lead-out : Нет
Заполнение пропущенных сэмплов тишиной : Да
Удаление блоков с тишиной в начале и конце : Нет
При вычислениях CRC использовались нулевые сэмплы : Да
Интерфейс : Встроенный Win32-интерфейс для Win NT/2000

Выходной формат : Пользовательский кодировщик
Выбранный битрейт : 768 kBit/s
Качество : Высокий
Добавление ID3-тэга : Нет
Утилита сжатия : C:\Program Files\Exact Audio Copy\FLAC\FLAC.EXE
Дополнительные параметры : -6 -V -T “ARTIST=%a” -T “TITLE=%t” -T “ALBUM=%g” -T “DATE=%y” -T “TRACKNUMBER=%n” -T “GENRE=%m” -T “COMMENT=%e” %s -o %d

TOC извлечённого CD

Трек | Старт | Длительность | Начальный сектор | Конечный сектор
———————————————————————
1 | 0:00.00 | 3:14.23 | 0 | 14572
2 | 3:14.23 | 2:01.50 | 14573 | 23697
3 | 5:15.73 | 2:00.35 | 23698 | 32732
4 | 7:16.33 | 2:59.62 | 32733 | 46219
5 | 10:16.20 | 2:25.35 | 46220 | 57129
6 | 12:41.55 | 0:52.33 | 57130 | 61062
7 | 13:34.13 | 3:18.30 | 61063 | 75942
8 | 16:52.43 | 2:51.65 | 75943 | 88832
9 | 19:44.33 | 2:50.40 | 88833 | 101622
10 | 22:34.73 | 4:12.12 | 101623 | 120534
11 | 26:47.10 | 0:59.03 | 120535 | 124962
12 | 27:46.13 | 2:00.25 | 124963 | 133987
13 | 29:46.38 | 1:48.52 | 133988 | 142139
14 | 31:35.15 | 2:30.65 | 142140 | 153454
15 | 34:06.05 | 1:48.60 | 153455 | 161614
16 | 35:54.65 | 1:42.40 | 161615 | 169304
17 | 37:37.30 | 2:48.28 | 169305 | 181932
18 | 40:25.58 | 3:53.07 | 181933 | 199414
19 | 44:18.65 | 3:30.00 | 199415 | 215164
20 | 47:48.65 | 2:47.03 | 215165 | 227692
21 | 50:35.68 | 2:22.32 | 227693 | 238374
22 | 52:58.25 | 4:54.73 | 238375 | 260497

Характеристики диапазона извлечения и сообщения об ошибках

Выбранный диапазон

Имя файла E:\Paul McCartney\The Family Way\Carl Aubut – Paul McCartney, The Family Way, Variations Concertantes Opus I.wav

Пиковый уровень 84.7 %
Качество диапазона 100.0 %
CRC теста A1718EF9
CRC копии A1718EF9
Копирование… OK

Ошибок не произошло

AccurateRip: сводка

Трек 1 точное извлечение (доверие 5) [3A6E9AD2]
Трек 2 точное извлечение (доверие 5) [03F041F0]
Трек 3 точное извлечение (доверие 5) [6F27F64D]
Трек 4 точное извлечение (доверие 5) [18481A28]
Трек 5 точное извлечение (доверие 5) [CBD60975]
Трек 6 точное извлечение (доверие 5) [62C0D42A]
Трек 7 точное извлечение (доверие 5) [00F4A041]
Трек 8 точное извлечение (доверие 5) [016695CE]
Трек 9 точное извлечение (доверие 5) [302DB8EB]
Трек 10 точное извлечение (доверие 5) [D38E23B8]
Трек 11 точное извлечение (доверие 5) [269FFE04]
Трек 12 точное извлечение (доверие 5) [2E6B0645]
Трек 13 точное извлечение (доверие 5) [1BACF6CB]
Трек 14 точное извлечение (доверие 5) [DF32458F]
Трек 15 точное извлечение (доверие 5) [AD027E24]
Трек 16 точное извлечение (доверие 5) [D7330EF4]
Трек 17 точное извлечение (доверие 5) [35058794]
Трек 18 точное извлечение (доверие 5) [E37F4B43]
Трек 19 точное извлечение (доверие 5) [407C08A2]
Трек 20 точное извлечение (доверие 5) [0E2874EE]
Трек 21 точное извлечение (доверие 5) [386A479E]
Трек 22 точное извлечение (доверие 4) [50BA4436]

Все треки извлечены точно

Конец отчёта

REM DISCID 4B0D9116
REM COMMENT “ExactAudioCopy v0.99pb5”
PERFORMER “Carl Aubut”
TITLE “Paul McCartney, The Family Way, Variations Concertantes Opus I”
FILE “Carl Aubut – Paul McCartney, The Family Way, Variations Concertantes Opus I.flac” WAVE
TRACK 01 AUDIO
TITLE “The Family Way – Variation No. 1”
PERFORMER “Carl Aubut”
INDEX 01 00:00:00
TRACK 02 AUDIO
TITLE “The Family Way – Variation No. 2”
PERFORMER “Carl Aubut”
INDEX 01 03:14:23
TRACK 03 AUDIO
TITLE “The Family Way – Variation No. 3”
PERFORMER “Carl Aubut”
INDEX 00 05:09:28
INDEX 01 05:15:73
TRACK 04 AUDIO
TITLE “The Family Way – Variation No. 4”
PERFORMER “Carl Aubut”
INDEX 01 07:16:33
TRACK 05 AUDIO
TITLE “The Family Way – Variation No. 5”
PERFORMER “Carl Aubut”
INDEX 00 10:14:20
INDEX 01 10:16:20
TRACK 06 AUDIO
TITLE “The Family Way – Variation No. 6”
PERFORMER “Carl Aubut”
INDEX 00 12:40:08
INDEX 01 12:41:55
TRACK 07 AUDIO
TITLE “The Family Way – Variation No. 7”
PERFORMER “Carl Aubut”
INDEX 01 13:34:13
TRACK 08 AUDIO
TITLE “The Family Way – Variation No. 8”
PERFORMER “Carl Aubut”
INDEX 00 16:51:35
INDEX 01 16:52:43
TRACK 09 AUDIO
TITLE “The Family Way – Variation No. 9”
PERFORMER “Carl Aubut”
INDEX 01 19:44:33
TRACK 10 AUDIO
TITLE “Hymn to the Child”
PERFORMER “Carl Aubut”
INDEX 00 22:31:49
INDEX 01 22:34:73
TRACK 11 AUDIO
TITLE “Reminiscences – Double March (Bobino) – Theme”
PERFORMER “Carl Aubut”
INDEX 00 26:41:20
INDEX 01 26:47:10
TRACK 12 AUDIO
TITLE “Reminiscences – Double March (Bobino) – Variation I”
PERFORMER “Carl Aubut”
INDEX 00 27:45:50
INDEX 01 27:46:13
TRACK 13 AUDIO
TITLE “Reminiscences – Double March (Bobino) – Variation II”
PERFORMER “Carl Aubut”
INDEX 00 29:46:05
INDEX 01 29:46:38
TRACK 14 AUDIO
TITLE “Reminiscences – Double March (Bobino) – Variation III”
PERFORMER “Carl Aubut”
INDEX 00 31:33:50
INDEX 01 31:35:15
TRACK 15 AUDIO
TITLE “Reminiscences – Double March (Bobino) – Variation IV”
PERFORMER “Carl Aubut”
INDEX 00 34:05:05
INDEX 01 34:06:05
TRACK 16 AUDIO
TITLE “Reminiscences – Double March (Bobino) – Variation V”
PERFORMER “Carl Aubut”
INDEX 00 35:53:30
INDEX 01 35:54:65
TRACK 17 AUDIO
TITLE “Reminiscences – Le Capitaine Bonhomme”
PERFORMER “Carl Aubut”
INDEX 00 37:34:53
INDEX 01 37:37:30
TRACK 18 AUDIO
TITLE “Reminiscences – Le Pirate Maboule”
PERFORMER “Carl Aubut”
INDEX 00 40:22:70
INDEX 01 40:25:58
TRACK 19 AUDIO
TITLE “Reminiscences – Sol Et Gobelet”
PERFORMER “Carl Aubut”
INDEX 00 44:17:68
INDEX 01 44:18:65
TRACK 20 AUDIO
TITLE “Reminiscences – Grujot Et Delicat”
PERFORMER “Carl Aubut”
INDEX 00 47:45:33
INDEX 01 47:48:65
TRACK 21 AUDIO
TITLE “Reminiscences – Monsieur Surprise”
PERFORMER “Carl Aubut”
INDEX 00 50:33:63
INDEX 01 50:35:68
TRACK 22 AUDIO
TITLE “Children of Sarajevo”
PERFORMER “Carl Aubut”
INDEX 00 52:54:45
INDEX 01 52:58:25


Leave a Reply

Your email address will not be published. Required fields are marked *

This site uses Akismet to reduce spam. Learn how your comment data is processed.