Paul McCartney – Run Devil Run




No Cover available

Artist: Paul McCartney
Year: 1999
Genre: Rock
Notes: Discogs
Add. Notes:
Watch Songs on: YouTube
Cover incl.: Yes
Encoder: FLAC
Bitrate: ~900 kBit/s (44.1 kHz/16 Bit/s)
Log & Cue incl.: Yes/Yes
Size: 322,8 MB
Password: “slam” (without ” “)


All Downloads/Hosters are compatible

Download 1
KatFile.com
Turbobit.net
Rapidgator.net
FileFactory.com
Download 2
KatFile.com
Turbobit.net
Rapidgator.net
FileFactory.com

Tracklist:

1 Blue Jean Bop 1:57
2 She Said Yeah 2:05
3 All Shook Up 2:04
4 Run Devil Run 2:35
5 No Other Baby 4:17
6 Lonesome Town 3:29
7 Try Not To Cry 2:40
8 Movie Magg 2:11
9 Brown Eyed Handsome Man 2:27
10 What It Is 2:23
11 Coquette 2:41
12 I Got Stung 2:39
13 Honey Hush 2:35
14 Shake A Hand 3:50
15 Party 2:37

EAC-Log, CUE-Sheed & NFO:

Click to open spoiler
Exact Audio Copy V0.99 prebeta 5 from 4. May 2009

Отчёт EAC об извлечении, выполненном 20. октября 2009, 15:02

McCartney, Paul / Run Devil Run

Дисковод: MATSHITADVD-RAM UJ-850S Adapter: 1 ID: 0

Режим чтения : Достоверность
Использование точного потока : Да
Отключение кэша аудио : Да
Использование указателей C2 : Нет

Коррекция смещения при чтении : 102
Способность читать области Lead-in и Lead-out : Нет
Заполнение пропущенных сэмплов тишиной : Да
Удаление блоков с тишиной в начале и конце : Нет
При вычислениях CRC использовались нулевые сэмплы : Да
Интерфейс : Встроенный Win32-интерфейс для Win NT/2000

Выходной формат : Пользовательский кодировщик
Выбранный битрейт : 1024 kBit/s
Качество : Высокий
Добавление ID3-тэга : Нет
Утилита сжатия : C:\Program Files\Exact Audio Copy\Flac\flac.exe
Дополнительные параметры : -8 -V -T “ARTIST=%a” -T “TITLE=%t” -T “ALBUM=%g” -T “DATE=%y” -T “TRACKNUMBER=%n” -T “TOTALTRACKS=%x” -T “GENRE=%m” -T “ALBUM ARTIST=%v” -T “ALBUMARTIST=%v” -T “COMMENT=EAC V0.99 prebeta 5, Secure Mode, AccurateRip, FLAC -8” %s

TOC извлечённого CD

Трек | Старт | Длительность | Начальный сектор | Конечный сектор
———————————————————————
1 | 0:00.00 | 1:57.17 | 0 | 8791
2 | 1:57.17 | 2:06.48 | 8792 | 18289
3 | 4:03.65 | 2:05.55 | 18290 | 27719
4 | 6:09.45 | 2:36.30 | 27720 | 39449
5 | 8:46.00 | 4:17.67 | 39450 | 58791
6 | 13:03.67 | 3:30.23 | 58792 | 74564
7 | 16:34.15 | 2:40.60 | 74565 | 86624
8 | 19:15.00 | 2:12.22 | 86625 | 96546
9 | 21:27.22 | 2:27.15 | 96547 | 107586
10 | 23:54.37 | 2:23.05 | 107587 | 118316
11 | 26:17.42 | 2:42.68 | 118317 | 130534
12 | 29:00.35 | 2:40.32 | 130535 | 142566
13 | 31:40.67 | 2:35.60 | 142567 | 154251
14 | 34:16.52 | 3:52.20 | 154252 | 171671
15 | 38:08.72 | 2:37.63 | 171672 | 183509

Характеристики диапазона извлечения и сообщения об ошибках

Выбранный диапазон

Имя файла H:\MP3\Paul McCartney discography\1999.Run Devil Run\McCartney, Paul – Run Devil Run.wav

Пиковый уровень 98.9 %
Качество диапазона 100.0 %
CRC теста 6FF748EA
CRC копии 6FF748EA
Копирование… OK

Ошибок не произошло

AccurateRip: сводка

Трек 1 точное извлечение (доверие 15) [BAE96EC4]
Трек 2 точное извлечение (доверие 15) [6517FCA1]
Трек 3 точное извлечение (доверие 15) [B3D5BF86]
Трек 4 точное извлечение (доверие 15) [D2A17985]
Трек 5 точное извлечение (доверие 15) [9A034933]
Трек 6 точное извлечение (доверие 15) [134A4D16]
Трек 7 точное извлечение (доверие 15) [C7D1FE8E]
Трек 8 точное извлечение (доверие 15) [F4E1F53B]
Трек 9 точное извлечение (доверие 15) [6F40DCEE]
Трек 10 точное извлечение (доверие 15) [818AC43D]
Трек 11 точное извлечение (доверие 15) [7F551BD5]
Трек 12 точное извлечение (доверие 15) [D65E2FDE]
Трек 13 точное извлечение (доверие 15) [819924EF]
Трек 14 точное извлечение (доверие 15) [C36ABAE9]
Трек 15 точное извлечение (доверие 15) [BD47238E]

Все треки извлечены точно

Конец отчёта

REM GENRE Rock
REM DATE 1999
REM DISCID DA098E0F
REM COMMENT “ExactAudioCopy v0.99pb5”
PERFORMER “McCartney, Paul”
TITLE “Run Devil Run”
FILE “McCartney, Paul – Run Devil Run.flac” WAVE
TRACK 01 AUDIO
TITLE “Blue Jean Bop”
PERFORMER “McCartney, Paul”
INDEX 01 00:00:00
TRACK 02 AUDIO
TITLE “She Said Yeah”
PERFORMER “McCartney, Paul”
INDEX 01 01:57:17
TRACK 03 AUDIO
TITLE “All Shook Up”
PERFORMER “McCartney, Paul”
INDEX 01 04:03:65
TRACK 04 AUDIO
TITLE “Run Devil Run”
PERFORMER “McCartney, Paul”
INDEX 01 06:09:45
TRACK 05 AUDIO
TITLE “No Other Baby”
PERFORMER “McCartney, Paul”
INDEX 01 08:46:00
TRACK 06 AUDIO
TITLE “Lonesome Town”
PERFORMER “McCartney, Paul”
INDEX 01 13:03:67
TRACK 07 AUDIO
TITLE “Try Not To Cry”
PERFORMER “McCartney, Paul”
INDEX 01 16:34:15
TRACK 08 AUDIO
TITLE “Movie Magg”
PERFORMER “McCartney, Paul”
INDEX 01 19:15:00
TRACK 09 AUDIO
TITLE “Brown Eyed Handsome Man”
PERFORMER “McCartney, Paul”
INDEX 01 21:27:22
TRACK 10 AUDIO
TITLE “What It Is”
PERFORMER “McCartney, Paul”
INDEX 01 23:54:37
TRACK 11 AUDIO
TITLE “Coquette”
PERFORMER “McCartney, Paul”
INDEX 01 26:17:42
TRACK 12 AUDIO
TITLE “I Got Stung”
PERFORMER “McCartney, Paul”
INDEX 01 29:00:35
TRACK 13 AUDIO
TITLE “Honey Hush”
PERFORMER “McCartney, Paul”
INDEX 01 31:40:67
TRACK 14 AUDIO
TITLE “Shake A Hand”
PERFORMER “McCartney, Paul”
INDEX 01 34:16:52
TRACK 15 AUDIO
TITLE “Party”
PERFORMER “McCartney, Paul”
INDEX 01 38:08:72


Leave a Reply

Your email address will not be published. Required fields are marked *

Enter the text from the image below
 

This site uses Akismet to reduce spam. Learn how your comment data is processed.