Paul McCartney – Return To Pepperland




No Cover available

Artist: Paul McCartney
Year: 1987/2000
Genre: Rock
Notes: Discogs
Add. Notes:
Watch Songs on: YouTube
Cover incl.: Yes
Encoder: FLAC
Bitrate: ~900 kBit/s (44.1 kHz/16 Bit/s)
Log & Cue incl.: Yes/Yes
Size: 453 MB
Password: “slam” (without ” “)


All Downloads/Hosters are compatible

Download 1
KatFile.com
Turbobit.net
Rapidgator.net
FileFactory.com
Download 2
KatFile.com
Turbobit.net
Rapidgator.net
FileFactory.com

Tracklist:

01.Lindiana Love
02.This House 
03.We Got Married  
04.Beautiful Night  
05.Loveliest Thin 
06.Squid  
07.Big Day  
08.This One   
09.Love Come Tumbling Down  
10.Christian Pop  
11.Atlantic Ocean   
12.Love Mix   
13.Return To Pepperland  
14.PS Love Me Do  
15.Same Love 
16.Don't Break The Promise 

EAC-Log, CUE-Sheed & NFO:

Click to open spoiler
Exact Audio Copy V0.99 prebeta 5 from 4. May 2009

Отчёт EAC об извлечении, выполненном 23. октября 2009, 16:52

Paul McCartney / Return To Pepperland

Дисковод: MATSHITADVD-RAM UJ-850S Adapter: 1 ID: 0

Режим чтения : Достоверность
Использование точного потока : Да
Отключение кэша аудио : Да
Использование указателей C2 : Нет

Коррекция смещения при чтении : 102
Способность читать области Lead-in и Lead-out : Нет
Заполнение пропущенных сэмплов тишиной : Да
Удаление блоков с тишиной в начале и конце : Нет
При вычислениях CRC использовались нулевые сэмплы : Да
Интерфейс : Встроенный Win32-интерфейс для Win NT/2000

Выходной формат : Пользовательский кодировщик
Выбранный битрейт : 1024 kBit/s
Качество : Высокий
Добавление ID3-тэга : Нет
Утилита сжатия : C:\Program Files\Exact Audio Copy\Flac\flac.exe
Дополнительные параметры : -8 -V -T “ARTIST=%a” -T “TITLE=%t” -T “ALBUM=%g” -T “DATE=%y” -T “TRACKNUMBER=%n” -T “TOTALTRACKS=%x” -T “GENRE=%m” -T “ALBUM ARTIST=%v” -T “ALBUMARTIST=%v” -T “COMMENT=EAC V0.99 prebeta 5, Secure Mode, AccurateRip, FLAC -8” %s

TOC извлечённого CD

Трек | Старт | Длительность | Начальный сектор | Конечный сектор
———————————————————————
1 | 0:00.00 | 5:50.04 | 0 | 26253
2 | 5:50.04 | 3:46.70 | 26254 | 43273
3 | 9:36.74 | 5:12.42 | 43274 | 66715
4 | 14:49.41 | 6:15.32 | 66716 | 94872
5 | 21:04.73 | 4:00.54 | 94873 | 112926
6 | 25:05.52 | 6:27.42 | 112927 | 141993
7 | 31:33.19 | 5:38.45 | 141994 | 167388
8 | 37:11.64 | 3:28.34 | 167389 | 183022
9 | 40:40.23 | 4:24.25 | 183023 | 202847
10 | 45:04.48 | 2:23.02 | 202848 | 213574
11 | 47:27.50 | 6:51.57 | 213575 | 244456
12 | 54:19.32 | 3:03.49 | 244457 | 258230
13 | 57:23.06 | 4:55.07 | 258231 | 280362
14 | 62:18.13 | 3:45.22 | 280363 | 297259
15 | 66:03.35 | 3:57.00 | 297260 | 315034
16 | 70:00.35 | 3:42.09 | 315035 | 331693

Характеристики диапазона извлечения и сообщения об ошибках

Выбранный диапазон

Имя файла H:\MP3\Paul McCartney discography\1987.Return To Pepperland\Новая папка\Paul McCartney – Return To Pepperland.wav

Пиковый уровень 100.0 %
Качество диапазона 100.0 %
CRC теста D9C7EC16
CRC копии D9C7EC16
Копирование… OK

Ошибок не произошло

AccurateRip: сводка

Трек 1 нет в базе данных
Трек 2 нет в базе данных
Трек 3 нет в базе данных
Трек 4 нет в базе данных
Трек 5 нет в базе данных
Трек 6 нет в базе данных
Трек 7 нет в базе данных
Трек 8 нет в базе данных
Трек 9 нет в базе данных
Трек 10 нет в базе данных
Трек 11 нет в базе данных
Трек 12 нет в базе данных
Трек 13 нет в базе данных
Трек 14 нет в базе данных
Трек 15 нет в базе данных
Трек 16 нет в базе данных

Ни одного трека нет в базе AccurateRip

Конец отчёта

REM GENRE Rock
REM DATE 1987
REM DISCID EA114610
REM COMMENT “ExactAudioCopy v0.99pb5”
PERFORMER “Paul McCartney”
TITLE “Return To Pepperland”
FILE “Paul McCartney – Return To Pepperland.flac” WAVE
TRACK 01 AUDIO
TITLE “01.Lindiana Love”
PERFORMER “Paul McCartney”
FLAGS DCP
INDEX 01 00:00:00
TRACK 02 AUDIO
TITLE “02.This House”
PERFORMER “Paul McCartney”
FLAGS DCP
INDEX 01 05:50:04
TRACK 03 AUDIO
TITLE “03.We Got Married”
PERFORMER “Paul McCartney”
FLAGS DCP
INDEX 01 09:36:74
TRACK 04 AUDIO
TITLE “04.Beautiful Night”
PERFORMER “Paul McCartney”
FLAGS DCP
INDEX 01 14:49:41
TRACK 05 AUDIO
TITLE “05.Loveliest Thin”
PERFORMER “Paul McCartney”
FLAGS DCP
INDEX 01 21:04:73
TRACK 06 AUDIO
TITLE “06.Squid”
PERFORMER “Paul McCartney”
FLAGS DCP
INDEX 01 25:05:52
TRACK 07 AUDIO
TITLE “07.Big Day”
PERFORMER “Paul McCartney”
FLAGS DCP
INDEX 01 31:33:19
TRACK 08 AUDIO
TITLE “08.This One”
PERFORMER “Paul McCartney”
FLAGS DCP
INDEX 01 37:11:64
TRACK 09 AUDIO
TITLE “09.Love Come Tumbling Down”
PERFORMER “Paul McCartney”
FLAGS DCP
INDEX 01 40:40:23
TRACK 10 AUDIO
TITLE “10.Christian Pop”
PERFORMER “Paul McCartney”
FLAGS DCP
INDEX 01 45:04:48
TRACK 11 AUDIO
TITLE “11.Atlantic Ocean”
PERFORMER “Paul McCartney”
FLAGS DCP
INDEX 01 47:27:50
TRACK 12 AUDIO
TITLE “12.Love Mix”
PERFORMER “Paul McCartney”
FLAGS DCP
INDEX 01 54:19:32
TRACK 13 AUDIO
TITLE “13.Return To Pepperland”
PERFORMER “Paul McCartney”
FLAGS DCP
INDEX 01 57:23:06
TRACK 14 AUDIO
TITLE “14.PS Love Me Do”
PERFORMER “Paul McCartney”
FLAGS DCP
INDEX 01 62:18:13
TRACK 15 AUDIO
TITLE “15.Same Love”
PERFORMER “Paul McCartney”
FLAGS DCP
INDEX 01 66:03:35
TRACK 16 AUDIO
TITLE “16.Don’t Break The Promise”
PERFORMER “Paul McCartney”
FLAGS DCP
INDEX 01 70:00:35


Leave a Reply

Your email address will not be published. Required fields are marked *

Enter the text from the image below
 

This site uses Akismet to reduce spam. Learn how your comment data is processed.