Paul McCartney – Red Rose Speedway (Reissue)




[Total: 0    Average: 0/5]

Artist: Paul McCartney
Year: 1973/1987
Genre: Rock
Notes: Discogs
Add. Notes: Reissue
Cover incl.: Yes
Encoder: FLAC
Bitrate: ~800 kBit/s (44.1 kHz/16 Bit/s)
Log & Cue incl.: Yes
Size: 440 MB
Password: “slam” (without ” “)


All Downloads/Hosters are compatible

Download 1
KatFile.com
Turbobit.net
FileFactory.com
Rapidgator.net
Download 2
KatFile.com
Turbobit.net
FileFactory.com
Rapidgator.net

Tracklist:

1 - Big Barn Bed - 3:50
2 - My Love - 4:08
3 - Get On The Right Thing - 4:16
4 - One More Kiss - 2:29
5 - Little Lamb Dragonfly - 6:20
6 - Single Pigeon - 1:53
7 - When The Night - 3:37
8 - Loup (1st Indian On The Moon) - 
4:23
Medley - 11:16
9a - Hold Me Tight 
9b - Lazy Dynamite 
9c - Hands Of Love 
9d - Power Cut 
10 - I Lie Around - 5:01
11 - Country Dreamer - 3:09
12 - The Mess (Recorded Live At The 
Hague) - 4:56

EAC-Log, CUE-Sheed & NFO:

Click to open spoiler
Exact Audio Copy V1.0 beta 1 from 15. November 2010

EAC extraction logfile from 6. January 2011, 3:28

Paul McCartney & Wings / Red Rose Speedway (CD-FA 3193)

Used drive : TEAC DV-W516GDM Adapter: 0 ID: 1

Read mode : Secure
Utilize accurate stream : Yes
Defeat audio cache : Yes
Make use of C2 pointers : No

Read offset correction : 6
Overread into Lead-In and Lead-Out : No
Fill up missing offset samples with silence : Yes
Delete leading and trailing silent blocks : No
Null samples used in CRC calculations : Yes
Used interface : Native Win32 interface for Win NT & 2000

Used output format : User Defined Encoder
Selected bitrate : 896 kBit/s
Quality : High
Add ID3 tag : No
Command line compressor : C:\Program Files\Exact Audio Copy 1.0\Flac\flac.exe
Additional command line options : -8 -V %s

TOC of the extracted CD

Track | Start | Length | Start sector | End sector
———————————————————
1 | 0:00.32 | 3:49.40 | 32 | 17246
2 | 3:49.72 | 4:07.40 | 17247 | 35811
3 | 7:57.37 | 4:16.20 | 35812 | 55031
4 | 12:13.57 | 2:29.05 | 55032 | 66211
5 | 14:42.62 | 6:20.23 | 66212 | 94734
6 | 21:03.10 | 1:52.47 | 94735 | 103181
7 | 22:55.57 | 3:37.08 | 103182 | 119464
8 | 26:32.65 | 4:22.60 | 119465 | 139174
9 | 30:55.50 | 11:17.55 | 139175 | 190004
10 | 42:13.30 | 5:02.47 | 190005 | 212701
11 | 47:16.02 | 3:11.20 | 212702 | 227046
12 | 50:27.22 | 4:55.68 | 227047 | 249239

Range status and errors

Selected range

Filename C:\Olaf der Weisse\Paul McCartney & Wings . 1973 . Red Rose Speedway (CD-FA 3193)\Paul McCartney & Wings – Red Rose Speedway (CD-FA 3193).wav

Peak level 97.7 %
Extraction speed 0.1 X
Range quality 100.0 %
Test CRC DCA72B77
Copy CRC DCA72B77
Copy OK

No errors occurred

AccurateRip summary

Track 1 accurately ripped (confidence 9) [BE9A7FCE]
Track 2 accurately ripped (confidence 9) [3477ECB7]
Track 3 accurately ripped (confidence 9) [B523C993]
Track 4 accurately ripped (confidence 9) [9D028EE6]
Track 5 accurately ripped (confidence 9) [92EC299E]
Track 6 accurately ripped (confidence 9) [977EEC20]
Track 7 accurately ripped (confidence 9) [DCA70158]
Track 8 accurately ripped (confidence 9) [BF151D6C]
Track 9 accurately ripped (confidence 9) [63A1B9AD]
Track 10 accurately ripped (confidence 8) [74A130FB]
Track 11 accurately ripped (confidence 8) [9371BA88]
Track 12 accurately ripped (confidence 9) [693FFF1C]

All tracks accurately ripped

End of status report

==== Log checksum 45E7151EF4F590710C4F021B8F59F5AA400F48CE21AD741C998D28497312B31B ====

REM GENRE Rock
REM DATE 1973
REM DISCID B90CFB0C
REM COMMENT “ExactAudioCopy v1.0b1”
PERFORMER “Paul McCartney & Wings”
TITLE “Red Rose Speedway (CD-FA 3193)”
FILE “Paul McCartney & Wings – Red Rose Speedway (CD-FA 3193).flac” WAVE
TRACK 01 AUDIO
TITLE “Big Barn Bed”
PERFORMER “Paul McCartney & Wings”
INDEX 00 00:00:00
INDEX 01 00:00:32
TRACK 02 AUDIO
TITLE “My Love”
PERFORMER “Paul McCartney & Wings”
INDEX 00 03:49:70
INDEX 01 03:49:72
TRACK 03 AUDIO
TITLE “Get On The Right Thing”
PERFORMER “Paul McCartney & Wings”
INDEX 00 07:57:35
INDEX 01 07:57:37
TRACK 04 AUDIO
TITLE “One More Kiss”
PERFORMER “Paul McCartney & Wings”
INDEX 00 12:13:55
INDEX 01 12:13:57
TRACK 05 AUDIO
TITLE “Little Lamb Dragonfly”
PERFORMER “Paul McCartney & Wings”
INDEX 00 14:42:60
INDEX 01 14:42:62
TRACK 06 AUDIO
TITLE “Single Pigeon”
PERFORMER “Paul McCartney & Wings”
INDEX 00 21:03:07
INDEX 01 21:03:10
TRACK 07 AUDIO
TITLE “When The Night”
PERFORMER “Paul McCartney & Wings”
INDEX 00 22:55:55
INDEX 01 22:55:57
TRACK 08 AUDIO
TITLE “Loup (1St Indian On The Moon)”
PERFORMER “Paul McCartney & Wings”
INDEX 00 26:32:62
INDEX 01 26:32:65
TRACK 09 AUDIO
TITLE “Medley; A. Hold Me Tight, B. Lazy Dynamite, C. Hands Of Love, D. Power Cut”
PERFORMER “Paul McCartney & Wings”
INDEX 00 30:55:46
INDEX 01 30:55:50
TRACK 10 AUDIO
TITLE “I Lie Around (Bonus Track)”
PERFORMER “Paul McCartney & Wings”
INDEX 00 42:11:40
INDEX 01 42:13:30
TRACK 11 AUDIO
TITLE “Country Dreamer (Bonus Track)”
PERFORMER “Paul McCartney & Wings”
INDEX 00 47:14:20
INDEX 01 47:16:02
TRACK 12 AUDIO
TITLE “The Mess (Recorded Live At The Hague) (Bonus Track)”
PERFORMER “Paul McCartney & Wings”
INDEX 00 50:24:62
INDEX 01 50:27:22


Spread the Download

Leave a Reply

Your email address will not be published. Required fields are marked *

Enter the text from the image below
 

This site uses Akismet to reduce spam. Learn how your comment data is processed.