Paul McCartney – Ram (Reissue)




Image not found

Artist: Paul McCartney
Year: 1971/1988
Genre: Rock
Notes: Discogs
Add. Notes: Reissue
Cover incl.: Yes
Encoder: FLAC
Bitrate: ~800 kBit/s (44.1 kHz/16 Bit/s)
Log & Cue incl.: Yes/Yes
Size: 346 MB
Password: “slam” (without ” “)


All Downloads/Hosters are compatible

Download 1
KatFile.com
Turbobit.net
FileFactory.com
Rapidgator.net
Download 2
KatFile.com
Turbobit.net
FileFactory.com
Rapidgator.net

Tracklist:

1 Too Many People 4:10
2 3 Legs 2:48
3 Ram On 2:30
4 Dear Boy 2:15
5 Uncle Albert / Admiral Halsey 4:55
6 Smile Away 3:53
7 Heart Of The Country 2:24
8 Monkberry Moon Delight 5:25
9 Eat At Home 3:23
10 Long Haired Lady 6:04
11 Ram On 0:56
12 The Back Seat Of My Car 4:32

EAC-Log, CUE-Sheed & NFO:

Click to open spoiler
Exact Audio Copy V1.0 beta 1 from 15. November 2010

EAC extraction logfile from 6. January 2011, 2:24

Paul & Linda McCartney / Ram (CDP 7 46612 2)

Used drive : TEAC DV-W516GDM Adapter: 0 ID: 1

Read mode : Secure
Utilize accurate stream : Yes
Defeat audio cache : Yes
Make use of C2 pointers : No

Read offset correction : 6
Overread into Lead-In and Lead-Out : No
Fill up missing offset samples with silence : Yes
Delete leading and trailing silent blocks : No
Null samples used in CRC calculations : Yes
Used interface : Native Win32 interface for Win NT & 2000

Used output format : User Defined Encoder
Selected bitrate : 896 kBit/s
Quality : High
Add ID3 tag : No
Command line compressor : C:\Program Files\Exact Audio Copy 1.0\Flac\flac.exe
Additional command line options : -8 -V %s

TOC of the extracted CD

Track | Start | Length | Start sector | End sector
———————————————————
1 | 0:00.33 | 4:10.05 | 33 | 18787
2 | 4:10.38 | 2:48.00 | 18788 | 31387
3 | 6:58.38 | 2:30.22 | 31388 | 42659
4 | 9:28.60 | 2:15.15 | 42660 | 52799
5 | 11:44.00 | 4:54.40 | 52800 | 74889
6 | 16:38.40 | 3:53.03 | 74890 | 92367
7 | 20:31.43 | 2:24.05 | 92368 | 103172
8 | 22:55.48 | 5:25.25 | 103173 | 127572
9 | 28:20.73 | 3:22.60 | 127573 | 142782
10 | 31:43.58 | 6:04.15 | 142783 | 170097
11 | 37:47.73 | 0:56.02 | 170098 | 174299
12 | 38:44.00 | 4:28.23 | 174300 | 194422

Range status and errors

Selected range

Filename C:\Olaf der Weisse\Paul & Linda McCartney . 1971 . Ram (CDP 7 46612 2)\Paul & Linda McCartney – Ram (CDP 7 46612 2).wav

Peak level 100.0 %
Extraction speed 0.1 X
Range quality 100.0 %
Test CRC 4521015F
Copy CRC 4521015F
Copy OK

No errors occurred

AccurateRip summary

Track 1 accurately ripped (confidence 40) [09A9E31E]
Track 2 accurately ripped (confidence 42) [8B8B4D4F]
Track 3 accurately ripped (confidence 42) [CC563E14]
Track 4 accurately ripped (confidence 42) [7E8BA16E]
Track 5 accurately ripped (confidence 42) [EE62ADE6]
Track 6 accurately ripped (confidence 42) [4ADFEE9E]
Track 7 accurately ripped (confidence 42) [41F1B7D7]
Track 8 accurately ripped (confidence 44) [742E9267]
Track 9 accurately ripped (confidence 40) [BCA2C155]
Track 10 accurately ripped (confidence 39) [63C123A6]
Track 11 accurately ripped (confidence 39) [97983961]
Track 12 accurately ripped (confidence 37) [6BDEA90D]

All tracks accurately ripped

End of status report

==== Log checksum B86C7473377A2D238C2B6D2FAAA33AE0B3AED53153DC0085EAACD5CC24410F3F ====

REM GENRE Rock
REM DATE 1971
REM DISCID 7F0A200C
REM COMMENT “ExactAudioCopy v1.0b1”
PERFORMER “Paul & Linda McCartney”
TITLE “Ram (CDP 7 46612 2)”
FILE “Paul & Linda McCartney – Ram (CDP 7 46612 2).flac” WAVE
TRACK 01 AUDIO
TITLE “Too Many People”
PERFORMER “Paul & Linda McCartney”
INDEX 00 00:00:00
INDEX 01 00:00:33
TRACK 02 AUDIO
TITLE “3 Legs”
PERFORMER “Paul & Linda McCartney”
INDEX 00 04:10:35
INDEX 01 04:10:38
TRACK 03 AUDIO
TITLE “Ram On”
PERFORMER “Paul & Linda McCartney”
INDEX 00 06:58:35
INDEX 01 06:58:38
TRACK 04 AUDIO
TITLE “Dear Boy”
PERFORMER “Paul & Linda McCartney”
INDEX 00 09:28:53
INDEX 01 09:28:60
TRACK 05 AUDIO
TITLE “Uncle Albert – Admiral Halsey”
PERFORMER “Paul & Linda McCartney”
INDEX 00 11:42:53
INDEX 01 11:44:00
TRACK 06 AUDIO
TITLE “Smile Away”
PERFORMER “Paul & Linda McCartney”
INDEX 00 16:38:37
INDEX 01 16:38:40
TRACK 07 AUDIO
TITLE “Heart Of The Country”
PERFORMER “Paul & Linda McCartney”
INDEX 00 20:31:30
INDEX 01 20:31:43
TRACK 08 AUDIO
TITLE “Monkberry Moon Delight”
PERFORMER “Paul & Linda McCartney”
INDEX 00 22:55:40
INDEX 01 22:55:48
TRACK 09 AUDIO
TITLE “Eat At Home”
PERFORMER “Paul & Linda McCartney”
INDEX 00 28:19:60
INDEX 01 28:20:73
TRACK 10 AUDIO
TITLE “Long Haired Lady”
PERFORMER “Paul & Linda McCartney”
INDEX 00 31:42:58
INDEX 01 31:43:58
TRACK 11 AUDIO
TITLE “Ram On”
PERFORMER “Paul & Linda McCartney”
INDEX 00 37:47:70
INDEX 01 37:47:73
TRACK 12 AUDIO
TITLE “The Back Seat Of My Car”
PERFORMER “Paul & Linda McCartney”
INDEX 00 38:43:73
INDEX 01 38:44:00


Leave a Reply

Your email address will not be published. Required fields are marked *

Enter the text from the image below
 

This site uses Akismet to reduce spam. Learn how your comment data is processed.