Paul McCartney – Press To Play (Remastered)




[Total: 0    Average: 0/5]

Artist: Paul McCartney
Year: 1986/1993
Genre: Rock
Notes: Discogs
Add. Notes: Remastered
Cover incl.: Yes
Encoder: FLAC
Bitrate: ~800 kBit/s (44.1 kHz/16 Bit/s)
Log & Cue incl.: Yes/Yes
Size: 411,1 MB
Password: “slam” (without ” “)


All Downloads/Hosters are compatible

Download 1
KatFile.com
Turbobit.net
FileFactory.com
Rapidgator.net
Download 2
KatFile.com
Turbobit.net
FileFactory.com
Rapidgator.net

Tracklist:

1 Stranglehold 3:35
2 Good Times Coming / Feel The Sun 4:54
3 Talk More Talk 5:17
4 Footprints 4:31
5 Only Love Remains 4:12
6 Press 4:42
7 Pretty Little Head 5:12
8 Move Over Busker 4:04
9 Angry 3:35
10 However Absurd 4:55
11 Write Away 2:59
12 It's Not True 5:52
13 Tough On A Tightrope 4:42
14 Spies Like Us 4:45
15 Once Upon A Long Ago (Long Version) 4:37

EAC-Log, CUE-Sheed & NFO:

Click to open spoiler
Exact Audio Copy V0.99 prebeta 5 from 4. May 2009

Отчёт EAC об извлечении, выполненном 19. октября 2009, 15:09

Paul McCartney / Press To Play

Дисковод: MATSHITADVD-RAM UJ-850S Adapter: 1 ID: 0

Режим чтения : Достоверность
Использование точного потока : Да
Отключение кэша аудио : Да
Использование указателей C2 : Нет

Коррекция смещения при чтении : 102
Способность читать области Lead-in и Lead-out : Нет
Заполнение пропущенных сэмплов тишиной : Да
Удаление блоков с тишиной в начале и конце : Нет
При вычислениях CRC использовались нулевые сэмплы : Да
Интерфейс : Встроенный Win32-интерфейс для Win NT/2000

Выходной формат : Пользовательский кодировщик
Выбранный битрейт : 1024 kBit/s
Качество : Высокий
Добавление ID3-тэга : Нет
Утилита сжатия : C:\Program Files\Exact Audio Copy\Flac\flac.exe
Дополнительные параметры : -8 -V -T “ARTIST=%a” -T “TITLE=%t” -T “ALBUM=%g” -T “DATE=%y” -T “TRACKNUMBER=%n” -T “TOTALTRACKS=%x” -T “GENRE=%m” -T “ALBUM ARTIST=%v” -T “ALBUMARTIST=%v” -T “COMMENT=EAC V0.99 prebeta 5, Secure Mode, AccurateRip, FLAC -8” %s

TOC извлечённого CD

Трек | Старт | Длительность | Начальный сектор | Конечный сектор
———————————————————————
1 | 0:00.33 | 3:36.57 | 33 | 16289
2 | 3:37.15 | 4:56.23 | 16290 | 38512
3 | 8:33.38 | 5:17.67 | 38513 | 62354
4 | 13:51.30 | 4:32.25 | 62355 | 82779
5 | 18:23.55 | 4:16.28 | 82780 | 102007
6 | 22:40.08 | 4:43.10 | 102008 | 123242
7 | 27:23.18 | 5:13.35 | 123243 | 146752
8 | 32:36.53 | 4:05.35 | 146753 | 165162
9 | 36:42.13 | 3:36.10 | 165163 | 181372
10 | 40:18.23 | 4:58.50 | 181373 | 203772
11 | 45:16.73 | 3:01.30 | 203773 | 217377
12 | 48:18.28 | 5:53.00 | 217378 | 243852
13 | 54:11.28 | 4:51.55 | 243853 | 265732
14 | 59:03.08 | 4:48.02 | 265733 | 287334
15 | 63:51.10 | 4:36.05 | 287335 | 308039

Характеристики диапазона извлечения и сообщения об ошибках

Выбранный диапазон

Имя файла H:\MP3\Paul McCartney discography\1986.Press To Play\1986.Press To Play [Remastered]\Paul McCartney – Press To Play.wav

Пиковый уровень 100.0 %
Качество диапазона 100.0 %
CRC теста 93D25F07
CRC копии 93D25F07
Копирование… OK

Ошибок не произошло

AccurateRip: сводка

Трек 1 точное извлечение (доверие 14) [BFCD88A9]
Трек 2 точное извлечение (доверие 14) [D428EA67]
Трек 3 точное извлечение (доверие 14) [431FD26E]
Трек 4 точное извлечение (доверие 14) [E48550E4]
Трек 5 точное извлечение (доверие 15) [3C2B9EBA]
Трек 6 точное извлечение (доверие 14) [F4B6DDC8]
Трек 7 точное извлечение (доверие 15) [18D0534A]
Трек 8 точное извлечение (доверие 15) [592A6F36]
Трек 9 точное извлечение (доверие 15) [8A314C96]
Трек 10 точное извлечение (доверие 16) [4880346C]
Трек 11 точное извлечение (доверие 15) [032DB10F]
Трек 12 точное извлечение (доверие 15) [82EF8384]
Трек 13 точное извлечение (доверие 14) [BDF40F86]
Трек 14 точное извлечение (доверие 14) [47B71656]
Трек 15 точное извлечение (доверие 14) [0C7B3E3E]

Все треки извлечены точно

Конец отчёта

REM GENRE Rock
REM DATE 1986
REM DISCID BD100B0F
REM COMMENT “ExactAudioCopy v0.99pb5”
PERFORMER “Paul McCartney”
TITLE “Press To Play”
FILE “Paul McCartney – Press To Play.flac” WAVE
TRACK 01 AUDIO
TITLE “Stranglehold”
PERFORMER “Paul McCartney”
INDEX 00 00:00:00
INDEX 01 00:00:33
TRACK 02 AUDIO
TITLE “Good Times Coming:Feel The Sun”
PERFORMER “Paul McCartney”
INDEX 00 03:37:13
INDEX 01 03:37:15
TRACK 03 AUDIO
TITLE “Talk More Talk”
PERFORMER “Paul McCartney”
INDEX 00 08:32:45
INDEX 01 08:33:38
TRACK 04 AUDIO
TITLE “Footprints”
PERFORMER “Paul McCartney”
INDEX 00 13:50:65
INDEX 01 13:51:30
TRACK 05 AUDIO
TITLE “Only Love Remains”
PERFORMER “Paul McCartney”
INDEX 00 18:23:20
INDEX 01 18:23:55
TRACK 06 AUDIO
TITLE “Press”
PERFORMER “Paul McCartney”
INDEX 00 22:36:40
INDEX 01 22:40:08
TRACK 07 AUDIO
TITLE “Pretty Little Head”
PERFORMER “Paul McCartney”
INDEX 00 27:23:15
INDEX 01 27:23:18
TRACK 08 AUDIO
TITLE “Move Over Busker”
PERFORMER “Paul McCartney”
INDEX 00 32:36:50
INDEX 01 32:36:53
TRACK 09 AUDIO
TITLE “Angry”
PERFORMER “Paul McCartney”
INDEX 00 36:42:10
INDEX 01 36:42:13
TRACK 10 AUDIO
TITLE “However Absurd”
PERFORMER “Paul McCartney”
INDEX 00 40:18:20
INDEX 01 40:18:23
TRACK 11 AUDIO
TITLE “Write Away”
PERFORMER “Paul McCartney”
INDEX 00 45:14:51
INDEX 01 45:16:73
TRACK 12 AUDIO
TITLE “It’s Not True”
PERFORMER “Paul McCartney”
INDEX 00 48:17:08
INDEX 01 48:18:28
TRACK 13 AUDIO
TITLE “Tough On A Tightrope”
PERFORMER “Paul McCartney”
INDEX 00 54:11:08
INDEX 01 54:11:28
TRACK 14 AUDIO
TITLE “Spies Like Us”
PERFORMER “Paul McCartney”
INDEX 00 58:53:45
INDEX 01 59:03:08
TRACK 15 AUDIO
TITLE “Once Upon A Long Ago [long version]”
PERFORMER “Paul McCartney”
INDEX 00 63:49:15
INDEX 01 63:51:10


Spread the Download

Leave a Reply

Your email address will not be published. Required fields are marked *

Enter the text from the image below
 

This site uses Akismet to reduce spam. Learn how your comment data is processed.