Paul McCartney – Pipes of Peace




Artist: Paul McCartney
Year: 1983/1984
Genre: Rock
Notes: Discogs
Add. Notes:
Cover incl.: Yes
Encoder: FLAC
Bitrate: ~900 kBit/s (44.1 kHz/16 Bit/s)
Log & Cue incl.: Yes
Size: 460,8 MB
Password: “slam” (without ” “)


All Downloads/Hosters are compatible

Download 1
KatFile.com
Turbobit.net
FileFactory.com
Rapidgator.net
Download 2
KatFile.com
Turbobit.net
FileFactory.com
Rapidgator.net

Tracklist:

1 Pipes Of Peace 3:55
2 Say Say Say 3:55
3 The Other Me 3:56
4 Keep Under Cover 3:04
5 So Bad 3:20
6 The Man 3:55
7 Sweetest Little Show 2:53
8 Average Person 4:32
9 Hey Hey 2:53
10 Tug Of Peace 2:52
11 Through Our Love 3:28

EAC-Log, CUE-Sheed & NFO:

Click to open spoiler
Exact Audio Copy V1.0 beta 1 from 15. November 2010

EAC extraction logfile from 4. January 2011, 16:25

Paul McCartney / Pipes of Peace (CDP 7 46018 2)

Used drive : TEAC DV-W516GDM Adapter: 0 ID: 1

Read mode : Secure
Utilize accurate stream : Yes
Defeat audio cache : Yes
Make use of C2 pointers : No

Read offset correction : 6
Overread into Lead-In and Lead-Out : No
Fill up missing offset samples with silence : Yes
Delete leading and trailing silent blocks : No
Null samples used in CRC calculations : Yes
Used interface : Native Win32 interface for Win NT & 2000

Used output format : User Defined Encoder
Selected bitrate : 896 kBit/s
Quality : High
Add ID3 tag : No
Command line compressor : C:\Program Files\Exact Audio Copy 1.0\Flac\flac.exe
Additional command line options : -8 -V %s

TOC of the extracted CD

Track | Start | Length | Start sector | End sector
———————————————————
1 | 0:00.00 | 3:55.30 | 0 | 17654
2 | 3:55.30 | 3:56.22 | 17655 | 35376
3 | 7:51.52 | 3:58.38 | 35377 | 53264
4 | 11:50.15 | 3:07.47 | 53265 | 67336
5 | 14:57.62 | 3:23.73 | 67337 | 82634
6 | 18:21.60 | 3:57.05 | 82635 | 100414
7 | 22:18.65 | 2:53.55 | 100415 | 113444
8 | 25:12.45 | 4:33.27 | 113445 | 133946
9 | 29:45.72 | 2:55.45 | 133947 | 147116
10 | 32:41.42 | 2:56.33 | 147117 | 160349
11 | 35:38.00 | 3:28.62 | 160350 | 176011

Range status and errors

Selected range

Filename C:\Olaf der Weisse\Paul McCartney . 1983 . Pipes of Peace (CDP 7 46018 2)\Paul McCartney – Pipes of Peace (CDP 7 46018 2).wav

Peak level 79.4 %
Extraction speed 0.1 X
Range quality 100.0 %
Test CRC C9E2AEFB
Copy CRC C9E2AEFB
Copy OK

No errors occurred

AccurateRip summary

Track 1 accurately ripped (confidence 2) [BF00243E]
Track 2 accurately ripped (confidence 2) [771BD9B3]
Track 3 accurately ripped (confidence 2) [9E8372DD]
Track 4 accurately ripped (confidence 2) [398F92A4]
Track 5 accurately ripped (confidence 2) [CF67BD0E]
Track 6 accurately ripped (confidence 2) [FB2412F2]
Track 7 accurately ripped (confidence 2) [D7E86F47]
Track 8 accurately ripped (confidence 2) [59936EDA]
Track 9 accurately ripped (confidence 2) [62CE0D2F]
Track 10 accurately ripped (confidence 2) [7FA3AFC2]
Track 11 cannot be verified as accurate (confidence 7) [4DD6CBF6], AccurateRip returned [75140A5E]

10 track(s) accurately ripped
1 track(s) could not be verified as accurate

Some tracks could not be verified as accurate

End of status report

==== Log checksum 99568A045F05D9F1A2943D06F363BF92055D96385EF948D8459C79163D0F39BD ====

REM GENRE “Pop Rock”
REM DATE 1983
REM DISCID 89092A0B
REM COMMENT “ExactAudioCopy v1.0b1”
PERFORMER “Paul McCartney”
TITLE “Pipes of Peace (CDP 7 46018 2)”
FILE “Paul McCartney – Pipes of Peace (CDP 7 46018 2).flac” WAVE
TRACK 01 AUDIO
TITLE “Pipes of Peace”
PERFORMER “Paul McCartney”
FLAGS PRE
INDEX 01 00:00:00
TRACK 02 AUDIO
TITLE “Say Say Say”
PERFORMER “Paul McCartney”
FLAGS PRE
INDEX 01 03:55:30
TRACK 03 AUDIO
TITLE “The Other Me”
PERFORMER “Paul McCartney”
FLAGS PRE
INDEX 00 07:50:35
INDEX 01 07:51:52
TRACK 04 AUDIO
TITLE “Keep Under Cover”
PERFORMER “Paul McCartney”
FLAGS PRE
INDEX 00 11:48:42
INDEX 01 11:50:15
TRACK 05 AUDIO
TITLE “So Bad”
PERFORMER “Paul McCartney”
FLAGS PRE
INDEX 00 14:54:20
INDEX 01 14:57:62
TRACK 06 AUDIO
TITLE “The Man”
PERFORMER “Paul McCartney”
FLAGS PRE
INDEX 00 18:18:00
INDEX 01 18:21:60
TRACK 07 AUDIO
TITLE “Sweetest Little Show”
PERFORMER “Paul McCartney”
FLAGS PRE
INDEX 00 22:16:72
INDEX 01 22:18:65
TRACK 08 AUDIO
TITLE “Average Person”
PERFORMER “Paul McCartney”
FLAGS PRE
INDEX 01 25:12:45
TRACK 09 AUDIO
TITLE “Hey Hey”
PERFORMER “Paul McCartney”
FLAGS PRE
INDEX 00 29:44:57
INDEX 01 29:45:72
TRACK 10 AUDIO
TITLE “Tug of Peace”
PERFORMER “Paul McCartney”
FLAGS PRE
INDEX 00 32:39:37
INDEX 01 32:41:42
TRACK 11 AUDIO
TITLE “Through Our Love”
PERFORMER “Paul McCartney”
FLAGS PRE
INDEX 00 35:34:25
INDEX 01 35:38:00


Leave a Reply

Your email address will not be published. Required fields are marked *

Enter the text from the image below
 

This site uses Akismet to reduce spam. Learn how your comment data is processed.