Paul McCartney – Off the Ground




No Cover available

Artist: Paul McCartney
Year: 1993
Genre: Rock
Notes: Discogs
Add. Notes:
Watch Songs on: YouTube
Cover incl.: Yes
Encoder: FLAC
Bitrate: ~900 kBit/s (44.1 kHz/16 Bit/s)
Log & Cue incl.: Yes/Yes
Size: 326 MB
Password: “slam” (without ” “)


All Downloads/Hosters are compatible

Download 1
KatFile.com
Turbobit.net
Rapidgator.net
FileFactory.com
Download 2
KatFile.com
Turbobit.net
Rapidgator.net
FileFactory.com

Tracklist:

1 Off The Ground 3:41
2 Looking For Changes 2:49
3 Hope Of Deliverance 3:22
4 Mistress And Maid 3:01
5 I Owe It All To You 4:51
6 Biker Like An Icon 3:26
7 Peace In The Neighbourhood 5:05
8 Golden Earth Girl 3:45
9 The Lovers That Never Were 3:43
10 Get Out Of My Way 3:33
11 Winedark Open Sea 5:27
12 C'mon People 7:42

EAC-Log, CUE-Sheed & NFO:

Click to open spoiler
Exact Audio Copy V0.99 prebeta 5 from 4. May 2009

Отчёт EAC об извлечении, выполненном 28. февраля 2011, 15:07

Paul McCartney / Off the Ground

Дисковод: Optiarc DVD RW AD-7240S Adapter: 1 ID: 0

Режим чтения : Достоверность
Использование точного потока : Да
Отключение кэша аудио : Да
Использование указателей C2 : Нет

Коррекция смещения при чтении : 48
Способность читать области Lead-in и Lead-out : Нет
Заполнение пропущенных сэмплов тишиной : Да
Удаление блоков с тишиной в начале и конце : Нет
При вычислениях CRC использовались нулевые сэмплы : Да
Интерфейс : Встроенный Win32-интерфейс для Win NT/2000

Выходной формат : Пользовательский кодировщик
Выбранный битрейт : 768 kBit/s
Качество : Высокий
Добавление ID3-тэга : Нет
Утилита сжатия : C:\Program Files\Exact Audio Copy\FLAC\FLAC.EXE
Дополнительные параметры : -6 -V -T “ARTIST=%a” -T “TITLE=%t” -T “ALBUM=%g” -T “DATE=%y” -T “TRACKNUMBER=%n” -T “GENRE=%m” -T “COMMENT=%e” %s -o %d

TOC извлечённого CD

Трек | Старт | Длительность | Начальный сектор | Конечный сектор
———————————————————————
1 | 0:00.00 | 3:40.37 | 0 | 16536
2 | 3:40.37 | 2:48.60 | 16537 | 29196
3 | 6:29.22 | 3:22.00 | 29197 | 44346
4 | 9:51.22 | 3:00.65 | 44347 | 57911
5 | 12:52.12 | 4:51.10 | 57912 | 79746
6 | 17:43.22 | 3:26.00 | 79747 | 95196
7 | 21:09.22 | 5:06.25 | 95197 | 118171
8 | 26:15.47 | 3:44.53 | 118172 | 135024
9 | 30:00.25 | 3:42.67 | 135025 | 151741
10 | 33:43.17 | 3:32.20 | 151742 | 167661
11 | 37:15.37 | 5:26.65 | 167662 | 192176
12 | 42:42.27 | 7:42.40 | 192177 | 226866

Характеристики диапазона извлечения и сообщения об ошибках

Выбранный диапазон

Имя файла E:\Paul McCartney\Off The Ground\Paul McCartney – Off the Ground.wav

Пиковый уровень 100.0 %
Качество диапазона 100.0 %
CRC теста 9FCA1B2B
CRC копии 9FCA1B2B
Копирование… OK

Ошибок не произошло

AccurateRip: сводка

Трек 1 точное извлечение (доверие 64) [F492E37E]
Трек 2 точное извлечение (доверие 65) [9F7118E1]
Трек 3 точное извлечение (доверие 68) [2F8507F7]
Трек 4 точное извлечение (доверие 65) [1AF8CEA2]
Трек 5 точное извлечение (доверие 65) [72F550B0]
Трек 6 точное извлечение (доверие 68) [3598CFCD]
Трек 7 точное извлечение (доверие 68) [429B4510]
Трек 8 точное извлечение (доверие 65) [C8E7867D]
Трек 9 точное извлечение (доверие 65) [83E207AA]
Трек 10 точное извлечение (доверие 67) [6D66F6D7]
Трек 11 точное извлечение (доверие 68) [2E50C871]
Трек 12 точное извлечение (доверие 63) [C8ECF5B0]

Все треки извлечены точно

Конец отчёта

REM GENRE Rock
REM DATE 1993
REM DISCID 960BD00C
REM COMMENT “ExactAudioCopy v0.99pb5”
PERFORMER “Paul McCartney”
TITLE “Off the Ground”
FILE “Paul McCartney – Off the Ground.flac” WAVE
TRACK 01 AUDIO
TITLE “Off the Ground”
PERFORMER “Paul McCartney”
INDEX 01 00:00:00
TRACK 02 AUDIO
TITLE “Looking for Changes”
PERFORMER “Paul McCartney”
INDEX 00 03:40:12
INDEX 01 03:40:37
TRACK 03 AUDIO
TITLE “Hope of Deliverance”
PERFORMER “Paul McCartney”
INDEX 00 06:27:42
INDEX 01 06:29:22
TRACK 04 AUDIO
TITLE “Mistress and Maid”
PERFORMER “Paul McCartney”
INDEX 01 09:51:22
TRACK 05 AUDIO
TITLE “I Owe it All to You”
PERFORMER “Paul McCartney”
INDEX 00 12:50:65
INDEX 01 12:52:12
TRACK 06 AUDIO
TITLE “Biker Like an Icon”
PERFORMER “Paul McCartney”
INDEX 01 17:43:22
TRACK 07 AUDIO
TITLE “Peace in the Neighbourhood”
PERFORMER “Paul McCartney”
INDEX 01 21:09:22
TRACK 08 AUDIO
TITLE “Golden Earth Girl”
PERFORMER “Paul McCartney”
INDEX 01 26:15:47
TRACK 09 AUDIO
TITLE “The Lovers that Never Were”
PERFORMER “Paul McCartney”
INDEX 01 30:00:25
TRACK 10 AUDIO
TITLE “Get Out of my Way”
PERFORMER “Paul McCartney”
INDEX 01 33:43:17
TRACK 11 AUDIO
TITLE “Winedark Open Sea”
PERFORMER “Paul McCartney”
INDEX 00 37:15:10
INDEX 01 37:15:37
TRACK 12 AUDIO
TITLE “C’mon People”
PERFORMER “Paul McCartney”
INDEX 01 42:42:27
INDEX 02 48:34:67


0

Publication author

offline 9 hours

Chaos

3
Comments: 4Publics: 3424Registration: 02-02-2019
Spread the Download

Leave a Reply

Your email address will not be published. Required fields are marked *

Enter the text from the image below
 

This site uses Akismet to reduce spam. Learn how your comment data is processed.