Paul McCartney – McCartney (Remastered)




Artist: Paul McCartney
Year: 1970/1992
Genre: Rock
Notes: Discogs
Add. Notes: Remastered
Cover incl.: Yes
Encoder: FLAC
Bitrate: ~800 kBit/s (44.1 kHz/16 Bit/s)
Log & Cue incl.: Yes
Size: 208 MB
Password: “slam” (without ” “)


All Downloads/Hosters are compatible

Download 1
KatFile.com
Turbobit.net
FileFactory.com
Rapidgator.net
Download 2
KatFile.com
Turbobit.net
FileFactory.com
Rapidgator.net

Tracklist:

1. The Lovely Linda
2. That Would Be Something
3. Valentine Day
4. Every Night
5. Hot As Sunglasses
6. Junk
7. Man We Was Lonely
8. OO-You
9. Momma Miss America
10. Teddy Boy
11. Singalong Junk
12. Maybe I'm Amazed
13. Kreen-Akrore

EAC-Log, CUE-Sheed & NFO:

Click to open spoiler
Exact Audio Copy V0.99 prebeta 5 from 4. May 2009

Отчёт EAC об извлечении, выполненном 30. января 2011, 20:02

Paul McCartney / McCartney (DCC GZS-1029)

Дисковод: Optiarc DVD RW AD-7240S Adapter: 1 ID: 0

Режим чтения : Достоверность
Использование точного потока : Да
Отключение кэша аудио : Да
Использование указателей C2 : Нет

Коррекция смещения при чтении : 48
Способность читать области Lead-in и Lead-out : Нет
Заполнение пропущенных сэмплов тишиной : Да
Удаление блоков с тишиной в начале и конце : Нет
При вычислениях CRC использовались нулевые сэмплы : Да
Интерфейс : Встроенный Win32-интерфейс для Win NT/2000

Выходной формат : Пользовательский кодировщик
Выбранный битрейт : 768 kBit/s
Качество : Высокий
Добавление ID3-тэга : Нет
Утилита сжатия : C:\Program Files\Exact Audio Copy\FLAC\FLAC.EXE
Дополнительные параметры : -6 -V -T “ARTIST=%a” -T “TITLE=%t” -T “ALBUM=%g” -T “DATE=%y” -T “TRACKNUMBER=%n” -T “GENRE=%m” -T “COMMENT=%e” %s -o %d

TOC извлечённого CD

Трек | Старт | Длительность | Начальный сектор | Конечный сектор
———————————————————————
1 | 0:00.00 | 0:47.30 | 0 | 3554
2 | 0:47.30 | 2:43.02 | 3555 | 15781
3 | 3:30.32 | 1:44.73 | 15782 | 23654
4 | 5:15.30 | 2:34.07 | 23655 | 35211
5 | 7:49.37 | 2:09.68 | 35212 | 44954
6 | 9:59.30 | 1:59.00 | 44955 | 53879
7 | 11:58.30 | 3:01.00 | 53880 | 67454
8 | 14:59.30 | 2:52.02 | 67455 | 80356
9 | 17:51.32 | 4:09.05 | 80357 | 99036
10 | 22:00.37 | 2:27.00 | 99037 | 110061
11 | 24:27.37 | 2:39.08 | 110062 | 121994
12 | 27:06.45 | 3:53.22 | 121995 | 139491
13 | 30:59.67 | 4:15.60 | 139492 | 158676

Характеристики диапазона извлечения и сообщения об ошибках

Выбранный диапазон

Имя файла E:\music\Музон\McCartney-Gold\Paul McCartney\Paul McCartney – McCartney (DCC GZS-1029).wav

Пиковый уровень 100.0 %
Качество диапазона 100.0 %
CRC теста 530418AC
CRC копии 530418AC
Копирование… OK

Ошибок не произошло

AccurateRip: сводка

Трек 1 точное извлечение (доверие 21) [5C63F560]
Трек 2 точное извлечение (доверие 22) [512C0A05]
Трек 3 точное извлечение (доверие 22) [DE8EC0D6]
Трек 4 точное извлечение (доверие 23) [3C5B29B8]
Трек 5 точное извлечение (доверие 23) [6524DFFB]
Трек 6 точное извлечение (доверие 22) [B62544C8]
Трек 7 точное извлечение (доверие 22) [8ADD48BD]
Трек 8 точное извлечение (доверие 22) [1463F9DC]
Трек 9 точное извлечение (доверие 22) [85E3B004]
Трек 10 точное извлечение (доверие 23) [608C79D7]
Трек 11 точное извлечение (доверие 22) [31C1E1D9]
Трек 12 точное извлечение (доверие 25) [E07055A9]
Трек 13 точное извлечение (доверие 22) [C210B958]

Все треки извлечены точно

Конец отчёта

REM GENRE Rock
REM DATE 1970
REM DISCID 8D08430D
REM COMMENT “ExactAudioCopy v0.99pb5”
PERFORMER “Paul McCartney”
TITLE “McCartney (DCC GZS-1029)”
FILE “Paul McCartney – McCartney (DCC GZS-1029).flac” WAVE
TRACK 01 AUDIO
TITLE “The Lovely Linda”
PERFORMER “Paul McCartney”
INDEX 01 00:00:00
TRACK 02 AUDIO
TITLE “That Would Be Something”
PERFORMER “Paul McCartney”
INDEX 00 00:46:22
INDEX 01 00:47:30
TRACK 03 AUDIO
TITLE “Valentine Day”
PERFORMER “Paul McCartney”
INDEX 00 03:28:72
INDEX 01 03:30:32
TRACK 04 AUDIO
TITLE “Every Night”
PERFORMER “Paul McCartney”
INDEX 00 05:13:27
INDEX 01 05:15:30
TRACK 05 AUDIO
TITLE “Hot As Sun – Glasses”
PERFORMER “Paul McCartney”
INDEX 00 07:48:17
INDEX 01 07:49:37
TRACK 06 AUDIO
TITLE “Junk”
PERFORMER “Paul McCartney”
INDEX 00 09:58:05
INDEX 01 09:59:30
TRACK 07 AUDIO
TITLE “Man We Was Lonely”
PERFORMER “Paul McCartney”
INDEX 00 11:55:67
INDEX 01 11:58:30
TRACK 08 AUDIO
TITLE “Oo You”
PERFORMER “Paul McCartney”
INDEX 00 14:57:55
INDEX 01 14:59:30
TRACK 09 AUDIO
TITLE “Momma Miss America”
PERFORMER “Paul McCartney”
INDEX 00 17:50:52
INDEX 01 17:51:32
TRACK 10 AUDIO
TITLE “Teddy Boy”
PERFORMER “Paul McCartney”
INDEX 00 21:58:22
INDEX 01 22:00:37
TRACK 11 AUDIO
TITLE “Singalong Junk”
PERFORMER “Paul McCartney”
INDEX 00 24:26:02
INDEX 01 24:27:37
TRACK 12 AUDIO
TITLE “Maybe I’m Amazed”
PERFORMER “Paul McCartney”
INDEX 00 27:04:62
INDEX 01 27:06:45
TRACK 13 AUDIO
TITLE “Kreen – Akrore”
PERFORMER “Paul McCartney”
INDEX 00 30:58:72
INDEX 01 30:59:67


Leave a Reply

Your email address will not be published. Required fields are marked *

Enter the text from the image below
 

This site uses Akismet to reduce spam. Learn how your comment data is processed.