Paul McCartney – McCartney (Remastered)




No Cover available

Artist: Paul McCartney
Year: 1970/1993
Genre: Rock
Notes: Discogs
Add. Notes: Remastered
Watch Songs on: YouTube
Cover incl.: Yes
Encoder: FLAC
Bitrate: ~700 kBit/s (44.1 kHz/16 Bit/s)
Log & Cue incl.: Yes/Yes
Size: 179,1 MB
Password: “slam” (without ” “)


All Downloads/Hosters are compatible

Download 1
KatFile.com
Turbobit.net
Rapidgator.net
FileFactory.com
Download 2
KatFile.com
Turbobit.net
Rapidgator.net
FileFactory.com

Tracklist:

1 The Lovely Linda 0:43
2 That Would Be Something 2:38
3 Valentine Day 1:39
4 Every Night 2:31
5 Hot As Sun / Glasses 2:05
6 Junk 1:54
7 Man We Was Lonely 2:56
8 Oo You 2:48
9 Momma Miss America 4:04
10 Teddy Boy 2:22
11 Singalong Junk 2:34
12 Maybe I'm Amazed 3:50
13 Kreen-Akore 4:15

EAC-Log, CUE-Sheed & NFO:

Click to open spoiler
Exact Audio Copy V0.99 prebeta 5 from 4. May 2009

Отчёт EAC об извлечении, выполненном 19. февраля 2011, 18:40

Paul McCartney / McCartney

Дисковод: Optiarc DVD RW AD-7240S Adapter: 1 ID: 0

Режим чтения : Достоверность
Использование точного потока : Да
Отключение кэша аудио : Да
Использование указателей C2 : Нет

Коррекция смещения при чтении : 48
Способность читать области Lead-in и Lead-out : Нет
Заполнение пропущенных сэмплов тишиной : Да
Удаление блоков с тишиной в начале и конце : Нет
При вычислениях CRC использовались нулевые сэмплы : Да
Интерфейс : Встроенный Win32-интерфейс для Win NT/2000

Выходной формат : Пользовательский кодировщик
Выбранный битрейт : 768 kBit/s
Качество : Высокий
Добавление ID3-тэга : Нет
Утилита сжатия : C:\Program Files\Exact Audio Copy\FLAC\FLAC.EXE
Дополнительные параметры : -6 -V -T “ARTIST=%a” -T “TITLE=%t” -T “ALBUM=%g” -T “DATE=%y” -T “TRACKNUMBER=%n” -T “GENRE=%m” -T “COMMENT=%e” %s -o %d

TOC извлечённого CD

Трек | Старт | Длительность | Начальный сектор | Конечный сектор
———————————————————————
1 | 0:00.33 | 0:45.57 | 33 | 3464
2 | 0:46.15 | 2:41.50 | 3465 | 15589
3 | 3:27.65 | 1:43.43 | 15590 | 23357
4 | 5:11.33 | 2:39.37 | 23358 | 35319
5 | 7:50.70 | 2:08.10 | 35320 | 44929
6 | 9:59.05 | 1:56.30 | 44930 | 53659
7 | 11:55.35 | 3:01.03 | 53660 | 67237
8 | 14:56.38 | 2:49.55 | 67238 | 79967
9 | 17:46.18 | 4:07.27 | 79968 | 98519
10 | 21:53.45 | 2:24.40 | 98520 | 109359
11 | 24:18.10 | 2:36.73 | 109360 | 121132
12 | 26:55.08 | 3:53.27 | 121133 | 138634
13 | 30:48.35 | 4:15.38 | 138635 | 157797

Характеристики диапазона извлечения и сообщения об ошибках

Выбранный диапазон

Имя файла E:\Paul McCartney\1970 McCartney\Paul McCartney – McCartney.wav

Пиковый уровень 79.8 %
Качество диапазона 99.9 %
CRC теста B9A83D27
CRC копии B9A83D27
Копирование… OK

Ошибок не произошло

AccurateRip: сводка

Трек 1 точное извлечение (доверие 4) [61BC5A9D]
Трек 2 точное извлечение (доверие 4) [D64EB34B]
Трек 3 точное извлечение (доверие 4) [47F225EC]
Трек 4 точное извлечение (доверие 4) [5F22A993]
Трек 5 точное извлечение (доверие 4) [528015E9]
Трек 6 точное извлечение (доверие 4) [38710193]
Трек 7 точное извлечение (доверие 4) [21E86962]
Трек 8 точное извлечение (доверие 4) [FFFD7A07]
Трек 9 точное извлечение (доверие 4) [1E30C8EB]
Трек 10 точное извлечение (доверие 4) [DD0F94D2]
Трек 11 точное извлечение (доверие 4) [5D7BA7B4]
Трек 12 точное извлечение (доверие 4) [52D1A2CB]
Трек 13 точное извлечение (доверие 4) [A9607BAB]

Все треки извлечены точно

Конец отчёта

REM GENRE Pop
REM DATE 1970
REM DISCID 9D08370D
REM COMMENT “ExactAudioCopy v0.99pb5”
PERFORMER “Paul McCartney”
TITLE “McCartney”
FILE “Paul McCartney – McCartney.flac” WAVE
TRACK 01 AUDIO
TITLE “The Lovely Linda”
PERFORMER “Paul McCartney”
INDEX 00 00:00:00
INDEX 01 00:00:33
TRACK 02 AUDIO
TITLE “That Would Be Something”
PERFORMER “Paul McCartney”
INDEX 00 00:45:00
INDEX 01 00:46:15
TRACK 03 AUDIO
TITLE “Valentine Day”
PERFORMER “Paul McCartney”
INDEX 00 03:24:68
INDEX 01 03:27:65
TRACK 04 AUDIO
TITLE “Every Night”
PERFORMER “Paul McCartney”
INDEX 00 05:07:68
INDEX 01 05:11:33
TRACK 05 AUDIO
TITLE “Hot As Sun/Glasses”
PERFORMER “Paul McCartney”
INDEX 00 07:43:33
INDEX 01 07:50:70
TRACK 06 AUDIO
TITLE “Junk”
PERFORMER “Paul McCartney”
INDEX 00 09:57:35
INDEX 01 09:59:05
TRACK 07 AUDIO
TITLE “Man We Was Lonely”
PERFORMER “Paul McCartney”
INDEX 00 11:53:65
INDEX 01 11:55:35
TRACK 08 AUDIO
TITLE “Oo You”
PERFORMER “Paul McCartney”
INDEX 00 14:52:48
INDEX 01 14:56:38
TRACK 09 AUDIO
TITLE “Momma Miss America”
PERFORMER “Paul McCartney”
INDEX 00 17:45:25
INDEX 01 17:46:18
TRACK 10 AUDIO
TITLE “Teddy Boy”
PERFORMER “Paul McCartney”
INDEX 00 21:51:40
INDEX 01 21:53:45
TRACK 11 AUDIO
TITLE “Singalong Junk”
PERFORMER “Paul McCartney”
INDEX 00 24:16:65
INDEX 01 24:18:10
TRACK 12 AUDIO
TITLE “Maybe I’m Amazed”
PERFORMER “Paul McCartney”
INDEX 00 26:53:15
INDEX 01 26:55:08
TRACK 13 AUDIO
TITLE “Kreen-Akrore”
PERFORMER “Paul McCartney”
INDEX 00 30:46:30
INDEX 01 30:48:35


Leave a Reply

Your email address will not be published. Required fields are marked *

Enter the text from the image below
 

This site uses Akismet to reduce spam. Learn how your comment data is processed.