Paul McCartney – McCartney (Reissue)




Artist: Paul McCartney
Year: 1970/1988
Genre: Rock
Notes: Discogs
Add. Notes: Reissue
Cover incl.: Yes
Encoder: FLAC
Bitrate: ~700 kBit/s (44.1 kHz/16 Bit/s)
Log & Cue incl.: Yes
Size: 332,8 MB
Password: “slam” (without ” “)


All Downloads/Hosters are compatible

Download 1
KatFile.com
Turbobit.net
Rapidgator.net
Download 2
KatFile.com
Turbobit.net
Rapidgator.net

Tracklist:

1. The Lovely Linda  
2. That Would Be Something  
3. Valentine Day  
4. Every Night  
5a. Hot As Sun  
5b. Glasses  
6. Junk  
7. Man We Was Lonely  
8. Oo You  
9. Momma Miss America  
10. Teddy Boy  
11. Singalong Junk  
12. Maybe I'm Amazed  
13. Kreen — Akrore

EAC-Log, CUE-Sheed & NFO:

Click to open spoiler
Exact Audio Copy V1.0 beta 1 from 15. November 2010

EAC extraction logfile from 24. February 2011, 22:38

Paul McCartney / McCartney (CDP 7 46611 2 USA)

Used drive : TEAC DV-W516GDM Adapter: 0 ID: 1

Read mode : Secure
Utilize accurate stream : Yes
Defeat audio cache : Yes
Make use of C2 pointers : No

Read offset correction : 6
Overread into Lead-In and Lead-Out : No
Fill up missing offset samples with silence : Yes
Delete leading and trailing silent blocks : No
Null samples used in CRC calculations : Yes
Used interface : Native Win32 interface for Win NT & 2000

Used output format : User Defined Encoder
Selected bitrate : 896 kBit/s
Quality : High
Add ID3 tag : No
Command line compressor : C:\Program Files\Exact Audio Copy 1.0\Flac\flac.exe
Additional command line options : -8 -V %s

TOC of the extracted CD

Track | Start | Length | Start sector | End sector
———————————————————
1 | 0:00.30 | 0:46.00 | 30 | 3479
2 | 0:46.30 | 2:42.58 | 3480 | 15687
3 | 3:29.13 | 1:44.17 | 15688 | 23504
4 | 5:13.30 | 2:40.13 | 23505 | 35517
5 | 7:53.43 | 2:08.22 | 35518 | 45139
6 | 10:01.65 | 1:57.03 | 45140 | 53917
7 | 11:58.68 | 2:59.35 | 53918 | 67377
8 | 14:58.28 | 2:50.27 | 67378 | 80154
9 | 17:48.55 | 4:08.20 | 80155 | 98774
10 | 21:57.00 | 2:25.10 | 98775 | 109659
11 | 24:22.10 | 2:37.13 | 109660 | 121447
12 | 26:59.23 | 3:54.30 | 121448 | 139027
13 | 30:53.53 | 4:15.12 | 139028 | 158164

Range status and errors

Selected range

Filename C:\Olaf der Weisse\Paul McCartney . 1970 . McCartney (CDP 7 46611 2 USA)\Paul McCartney – McCartney (CDP 7 46611 2 USA).wav

Peak level 100.0 %
Extraction speed 0.1 X
Range quality 100.0 %
Test CRC CCA9D8D7
Copy CRC CCA9D8D7
Copy OK

No errors occurred

AccurateRip summary

Track 1 accurately ripped (confidence 47) [E159D5DA]
Track 2 accurately ripped (confidence 48) [F84CD5DF]
Track 3 accurately ripped (confidence 48) [37790924]
Track 4 accurately ripped (confidence 47) [3E851940]
Track 5 accurately ripped (confidence 47) [665F8E41]
Track 6 accurately ripped (confidence 47) [F24CFF3A]
Track 7 accurately ripped (confidence 47) [A4D6FBA7]
Track 8 accurately ripped (confidence 47) [0610A3FC]
Track 9 accurately ripped (confidence 46) [5E008824]
Track 10 accurately ripped (confidence 47) [F472AED1]
Track 11 accurately ripped (confidence 46) [FF571ECE]
Track 12 accurately ripped (confidence 46) [8B8456B2]
Track 13 accurately ripped (confidence 47) [6FBED234]

All tracks accurately ripped

End of status report

==== Log checksum 03531905B78AEF6E7CA12E13CE15302B88D17BFC9D8554545661F2125BC4F947 ====

REM GENRE Rock
REM DATE 1970
REM DISCID 88083C0D
REM COMMENT “ExactAudioCopy v1.0b1”
PERFORMER “Paul McCartney”
TITLE “McCartney (CDP 7 46611 2 USA)”
FILE “Paul McCartney – McCartney (CDP 7 46611 2 USA).flac” WAVE
TRACK 01 AUDIO
TITLE “The Lovely Linda”
PERFORMER “Paul McCartney”
INDEX 00 00:00:00
INDEX 01 00:00:30
TRACK 02 AUDIO
TITLE “That Would Be Something”
PERFORMER “Paul McCartney”
INDEX 00 00:45:33
INDEX 01 00:46:30
TRACK 03 AUDIO
TITLE “Valentine Day”
PERFORMER “Paul McCartney”
INDEX 00 03:24:30
INDEX 01 03:29:13
TRACK 04 AUDIO
TITLE “Every Night”
PERFORMER “Paul McCartney”
INDEX 00 05:10:45
INDEX 01 05:13:30
TRACK 05 AUDIO
TITLE “Hot As Sun – Glasses”
PERFORMER “Paul McCartney”
INDEX 00 07:45:33
INDEX 01 07:53:43
TRACK 06 AUDIO
TITLE “Junk”
PERFORMER “Paul McCartney”
INDEX 00 10:00:63
INDEX 01 10:01:65
TRACK 07 AUDIO
TITLE “Man We Was Lonely”
PERFORMER “Paul McCartney”
INDEX 00 11:57:08
INDEX 01 11:58:68
TRACK 08 AUDIO
TITLE “Oo You”
PERFORMER “Paul McCartney”
INDEX 00 14:56:43
INDEX 01 14:58:28
TRACK 09 AUDIO
TITLE “Momma Miss America”
PERFORMER “Paul McCartney”
INDEX 00 17:47:35
INDEX 01 17:48:55
TRACK 10 AUDIO
TITLE “Teddy Boy”
PERFORMER “Paul McCartney”
INDEX 00 21:54:23
INDEX 01 21:57:00
TRACK 11 AUDIO
TITLE “Singalong Junk”
PERFORMER “Paul McCartney”
INDEX 00 24:20:65
INDEX 01 24:22:10
TRACK 12 AUDIO
TITLE “Maybe I’m Amazed”
PERFORMER “Paul McCartney”
INDEX 00 26:58:03
INDEX 01 26:59:23
TRACK 13 AUDIO
TITLE “Kreen – Akrore”
PERFORMER “Paul McCartney”
INDEX 00 30:51:43
INDEX 01 30:53:53


Leave a Reply

Your email address will not be published. Required fields are marked *

Enter the text from the image below
 

This site uses Akismet to reduce spam. Learn how your comment data is processed.