Paul McCartney – McCartney II (Remastered)




No Cover available

Artist: Paul McCartney
Year: 1980/1993
Genre: Rock
Notes: Discogs
Add. Notes: Remastered
Watch Songs on: YouTube
Cover incl.: Yes
Encoder: FLAC
Bitrate: ~800 kBit/s (44.1 kHz/16 Bit/s)
Log & Cue incl.: Yes/Yes
Size: 330,6 MB
Password: “slam” (without ” “)


All Downloads/Hosters are compatible

Download 1
KatFile.com
Turbobit.net
Rapidgator.net
FileFactory.com
Download 2
KatFile.com
Turbobit.net
Rapidgator.net
FileFactory.com

Tracklist:

1 Coming Up 3:52
2 Temporary Secretary 3:13
3 On The Way 3:36
4 Waterfalls 4:41
5 Nobody Knows 2:51
6 Front Parlour 3:30
7 Summer's Day Song 3:24
8 Frozen Jap 3:38
9 Bogey Music 3:25
10 Darkroom 2:18
11 One Of These Days 3:33
12 Check My Machine 5:51
13 Secret Friend 10:30
14 Goodnight Tonight 4:18

EAC-Log, CUE-Sheed & NFO:

Click to open spoiler
Exact Audio Copy V0.99 prebeta 5 from 4. May 2009

Отчёт EAC об извлечении, выполненном 19. февраля 2011, 16:29

Paul McCartney / McCartney II

Дисковод: Optiarc DVD RW AD-7240S Adapter: 1 ID: 0

Режим чтения : Достоверность
Использование точного потока : Да
Отключение кэша аудио : Да
Использование указателей C2 : Нет

Коррекция смещения при чтении : 48
Способность читать области Lead-in и Lead-out : Нет
Заполнение пропущенных сэмплов тишиной : Да
Удаление блоков с тишиной в начале и конце : Нет
При вычислениях CRC использовались нулевые сэмплы : Да
Интерфейс : Встроенный Win32-интерфейс для Win NT/2000

Выходной формат : Пользовательский кодировщик
Выбранный битрейт : 768 kBit/s
Качество : Высокий
Добавление ID3-тэга : Нет
Утилита сжатия : C:\Program Files\Exact Audio Copy\FLAC\FLAC.EXE
Дополнительные параметры : -6 -V -T “ARTIST=%a” -T “TITLE=%t” -T “ALBUM=%g” -T “DATE=%y” -T “TRACKNUMBER=%n” -T “GENRE=%m” -T “COMMENT=%e” %s -o %d

TOC извлечённого CD

Трек | Старт | Длительность | Начальный сектор | Конечный сектор
———————————————————————
1 | 0:00.33 | 3:55.20 | 33 | 17677
2 | 3:55.53 | 3:16.25 | 17678 | 32402
3 | 7:12.03 | 3:40.22 | 32403 | 48924
4 | 10:52.25 | 4:45.53 | 48925 | 70352
5 | 15:38.03 | 2:54.20 | 70353 | 83422
6 | 18:32.23 | 3:33.37 | 83423 | 99434
7 | 22:05.60 | 3:25.68 | 99435 | 114877
8 | 25:31.53 | 3:40.62 | 114878 | 131439
9 | 29:12.40 | 3:28.15 | 131440 | 147054
10 | 32:40.55 | 2:20.20 | 147055 | 157574
11 | 35:01.00 | 3:44.58 | 157575 | 174432
12 | 38:45.58 | 5:52.50 | 174433 | 200882
13 | 44:38.33 | 10:30.72 | 200883 | 248204
14 | 55:09.30 | 4:19.48 | 248205 | 267677

Характеристики диапазона извлечения и сообщения об ошибках

Выбранный диапазон

Имя файла E:\Paul McCartney\1980 McCartney II\Paul McCartney – McCartney II.wav

Пиковый уровень 100.0 %
Качество диапазона 99.9 %
CRC теста 1C43422D
CRC копии 1C43422D
Копирование… OK

Ошибок не произошло

AccurateRip: сводка

Трек 1 точное извлечение (доверие 36) [B39A8A4C]
Трек 2 точное извлечение (доверие 37) [BFD67833]
Трек 3 точное извлечение (доверие 37) [16D45733]
Трек 4 точное извлечение (доверие 35) [C30ABE83]
Трек 5 точное извлечение (доверие 37) [722EC62C]
Трек 6 точное извлечение (доверие 36) [95206DA1]
Трек 7 точное извлечение (доверие 36) [23DC8913]
Трек 8 точное извлечение (доверие 36) [8F44E4BC]
Трек 9 точное извлечение (доверие 37) [1921C817]
Трек 10 точное извлечение (доверие 37) [494B635C]
Трек 11 точное извлечение (доверие 37) [5937D4BE]
Трек 12 точное извлечение (доверие 36) [B2FD2760]
Трек 13 точное извлечение (доверие 35) [80C74F17]
Трек 14 точное извлечение (доверие 36) [EA814056]

Все треки извлечены точно

Конец отчёта

REM GENRE Rock
REM DATE 1980
REM DISCID A40DF10E
REM COMMENT “ExactAudioCopy v0.99pb5”
PERFORMER “Paul McCartney”
TITLE “McCartney II”
FILE “Paul McCartney – McCartney II.flac” WAVE
TRACK 01 AUDIO
TITLE “Coming Up”
PERFORMER “Paul McCartney”
INDEX 00 00:00:00
INDEX 01 00:00:33
TRACK 02 AUDIO
TITLE “Temporary Secretary”
PERFORMER “Paul McCartney”
INDEX 00 03:53:45
INDEX 01 03:55:53
TRACK 03 AUDIO
TITLE “On The Way”
PERFORMER “Paul McCartney”
INDEX 00 07:09:48
INDEX 01 07:12:03
TRACK 04 AUDIO
TITLE “Waterfalls”
PERFORMER “Paul McCartney”
INDEX 00 10:50:25
INDEX 01 10:52:25
TRACK 05 AUDIO
TITLE “Nobody Knows”
PERFORMER “Paul McCartney”
INDEX 00 15:34:68
INDEX 01 15:38:03
TRACK 06 AUDIO
TITLE “Front Parlour”
PERFORMER “Paul McCartney”
INDEX 00 18:30:15
INDEX 01 18:32:23
TRACK 07 AUDIO
TITLE “Summer’s Day Song”
PERFORMER “Paul McCartney”
INDEX 00 22:04:48
INDEX 01 22:05:60
TRACK 08 AUDIO
TITLE “Frozen Jap”
PERFORMER “Paul McCartney”
INDEX 00 25:30:48
INDEX 01 25:31:53
TRACK 09 AUDIO
TITLE “Bogey Music”
PERFORMER “Paul McCartney”
INDEX 00 29:11:65
INDEX 01 29:12:40
TRACK 10 AUDIO
TITLE “Darkroom”
PERFORMER “Paul McCartney”
INDEX 00 32:39:05
INDEX 01 32:40:55
TRACK 11 AUDIO
TITLE “One Of These Days”
PERFORMER “Paul McCartney”
INDEX 00 35:00:73
INDEX 01 35:01:00
TRACK 12 AUDIO
TITLE “Check My Machine”
PERFORMER “Paul McCartney”
INDEX 00 38:36:28
INDEX 01 38:45:58
TRACK 13 AUDIO
TITLE “Secret Friend”
PERFORMER “Paul McCartney”
INDEX 00 44:35:25
INDEX 01 44:38:33
TRACK 14 AUDIO
TITLE “Goodnight Tonight”
PERFORMER “Paul McCartney”
INDEX 00 55:07:30
INDEX 01 55:09:30


Leave a Reply

Your email address will not be published. Required fields are marked *

Enter the text from the image below
 

This site uses Akismet to reduce spam. Learn how your comment data is processed.