Paul McCartney – Good Evening New York City




No Cover available

Artist: Paul McCartney
Year: 2009
Genre: Rock
Notes: Discogs
Add. Notes:
Watch Songs on: YouTube
Cover incl.: Yes
Encoder: FLAC
Bitrate: ~900 kBit/s (44.1 kHz/16 Bit/s)
Log & Cue incl.: Yes/Yes
Size: 790,2 MB
Password: “slam” (without ” “)


All Downloads/Hosters are compatible

Download 1
KatFile.com
Turbobit.net
Rapidgator.net
FileFactory.com
Download 2
KatFile.com
Turbobit.net
Rapidgator.net
FileFactory.com

Tracklist:

CD1
1 Drive My Car 2:25
2 Jet 4:20
3 Only Mama Knows 3:41
4 Flaming Pie 2:29
5 Got To Get You Into My Life 2:51
6 Let Me Roll It 5:51
7 Highway 3:55
8 The Long And Winding Road 3:41
9 My Love 3:53
10 Blackbird 2:43
11 Here Today 2:32
12 Dance Tonight 3:02
13 Calico Skies 2:39
14 Mrs Vandebilt 4:40
15 Eleanor Rigby 2:25
16 Sing The Changes 4:17
17 Band On The Run 5:16

CD2
1 Back In The U.S.S.R. 3:08
2 I'm Down 2:23
3 Something 4:07
4 I've Got A Feeling 5:51
5 Paperback Writer 3:29
6 A Day In The Life / Give Peace A Chance 5:44
7 Let It Be 3:55
8 Live And Let Die 3:14
9 Hey Jude 7:23
10 Day Tripper 3:12
11 Lady Madonna 2:33
12 I Saw Her Standing There 3:09
13 Yesterday 2:17
14 Helter Skelter 3:53
15 Get Back 4:00
16 Sgt. Pepper's Lonely Hearts Club Band / The End 4:28

EAC-Log, CUE-Sheed & NFO:

Click to open spoiler
Exact Audio Copy V0.99 prebeta 5 from 4. May 2009

Отчёт EAC об извлечении, выполненном 6. марта 2011, 19:47

Paul McCartney / Good Evening New York City (Disc 1 of 2)

Дисковод: Optiarc DVD RW AD-7240S Adapter: 1 ID: 0

Режим чтения : Достоверность
Использование точного потока : Да
Отключение кэша аудио : Да
Использование указателей C2 : Нет

Коррекция смещения при чтении : 48
Способность читать области Lead-in и Lead-out : Нет
Заполнение пропущенных сэмплов тишиной : Да
Удаление блоков с тишиной в начале и конце : Нет
При вычислениях CRC использовались нулевые сэмплы : Да
Интерфейс : Встроенный Win32-интерфейс для Win NT/2000

Выходной формат : Пользовательский кодировщик
Выбранный битрейт : 768 kBit/s
Качество : Высокий
Добавление ID3-тэга : Нет
Утилита сжатия : C:\Program Files\Exact Audio Copy\FLAC\FLAC.EXE
Дополнительные параметры : -6 -V -T “ARTIST=%a” -T “TITLE=%t” -T “ALBUM=%g” -T “DATE=%y” -T “TRACKNUMBER=%n” -T “GENRE=%m” -T “COMMENT=%e” %s -o %d

TOC извлечённого CD

Трек | Старт | Длительность | Начальный сектор | Конечный сектор
———————————————————————
1 | 0:00.13 | 2:36.18 | 13 | 11730
2 | 2:36.31 | 4:19.60 | 11731 | 31215
3 | 6:56.16 | 3:38.51 | 31216 | 47616
4 | 10:34.67 | 2:24.40 | 47617 | 58456
5 | 12:59.32 | 2:50.38 | 58457 | 71244
6 | 15:49.70 | 5:49.62 | 71245 | 97481
7 | 21:39.57 | 3:56.67 | 97482 | 115248
8 | 25:36.49 | 3:36.23 | 115249 | 131471
9 | 29:12.72 | 3:55.01 | 131472 | 149097
10 | 33:07.73 | 2:41.46 | 149098 | 161218
11 | 35:49.44 | 2:27.19 | 161219 | 172262
12 | 38:16.63 | 2:58.71 | 172263 | 185683
13 | 41:15.59 | 2:35.06 | 185684 | 197314
14 | 43:50.65 | 4:39.33 | 197315 | 218272
15 | 48:30.23 | 2:21.72 | 218273 | 228919
16 | 50:52.20 | 4:13.39 | 228920 | 247933
17 | 55:05.59 | 5:25.44 | 247934 | 272352

Характеристики диапазона извлечения и сообщения об ошибках

Выбранный диапазон

Имя файла E:\Paul McCartney\Good Evening New York City\Disc1\Paul McCartney – Good Evening New York City (Disc 1 of 2).wav

Пиковый уровень 99.5 %
Качество диапазона 99.9 %
CRC теста F199AC00
CRC копии F199AC00
Копирование… OK

Ошибок не произошло

AccurateRip: сводка

Трек 1 точное извлечение (доверие 67) [08A797DD]
Трек 2 точное извлечение (доверие 68) [783CAA01]
Трек 3 точное извлечение (доверие 68) [C42E8E5F]
Трек 4 точное извлечение (доверие 68) [F1D923B8]
Трек 5 точное извлечение (доверие 68) [645330E7]
Трек 6 точное извлечение (доверие 67) [96CE2590]
Трек 7 точное извлечение (доверие 68) [0B4C74AD]
Трек 8 точное извлечение (доверие 67) [41D0372C]
Трек 9 точное извлечение (доверие 65) [F03BF1A2]
Трек 10 точное извлечение (доверие 67) [43A0528F]
Трек 11 точное извлечение (доверие 68) [C17F0E07]
Трек 12 точное извлечение (доверие 67) [835FF5D2]
Трек 13 точность не определена (достоверность 68) [D615C2C6], AccurateRip вернул [9FBA6FE3]
Трек 14 точное извлечение (доверие 68) [B83D3C2B]
Трек 15 точное извлечение (доверие 68) [B22D3013]
Трек 16 точное извлечение (доверие 68) [D72B2ED3]
Трек 17 точное извлечение (доверие 68) [FCDBEFF4]

16 трек(и) скопированы точно
1 трек(и) не удалось проверить на точность

Некоторые треки не прошли проверку на точность

Конец отчёта

Exact Audio Copy V0.99 prebeta 5 from 4. May 2009

Отчёт EAC об извлечении, выполненном 6. марта 2011, 20:18

Paul McCartney / Good Evening New York City (CD2)

Дисковод: Optiarc DVD RW AD-7240S Adapter: 1 ID: 0

Режим чтения : Достоверность
Использование точного потока : Да
Отключение кэша аудио : Да
Использование указателей C2 : Нет

Коррекция смещения при чтении : 48
Способность читать области Lead-in и Lead-out : Нет
Заполнение пропущенных сэмплов тишиной : Да
Удаление блоков с тишиной в начале и конце : Нет
При вычислениях CRC использовались нулевые сэмплы : Да
Интерфейс : Встроенный Win32-интерфейс для Win NT/2000

Выходной формат : Пользовательский кодировщик
Выбранный битрейт : 768 kBit/s
Качество : Высокий
Добавление ID3-тэга : Нет
Утилита сжатия : C:\Program Files\Exact Audio Copy\FLAC\FLAC.EXE
Дополнительные параметры : -6 -V -T “ARTIST=%a” -T “TITLE=%t” -T “ALBUM=%g” -T “DATE=%y” -T “TRACKNUMBER=%n” -T “GENRE=%m” -T “COMMENT=%e” %s -o %d

TOC извлечённого CD

Трек | Старт | Длительность | Начальный сектор | Конечный сектор
———————————————————————
1 | 0:00.14 | 3:12.38 | 14 | 14451
2 | 3:12.52 | 2:19.36 | 14452 | 24912
3 | 5:32.13 | 4:03.55 | 24913 | 43192
4 | 9:35.68 | 5:48.26 | 43193 | 69318
5 | 15:24.19 | 3:25.04 | 69319 | 84697
6 | 18:49.23 | 5:41.74 | 84698 | 110346
7 | 24:31.22 | 3:54.57 | 110347 | 127953
8 | 28:26.04 | 3:12.05 | 127954 | 142358
9 | 31:38.09 | 7:22.56 | 142359 | 175564
10 | 39:00.65 | 3:10.12 | 175565 | 189826
11 | 42:11.02 | 2:30.07 | 189827 | 201083
12 | 44:41.09 | 3:09.17 | 201084 | 215275
13 | 47:50.26 | 2:13.65 | 215276 | 225315
14 | 50:04.16 | 3:47.50 | 225316 | 242390
15 | 53:51.66 | 4:11.16 | 242391 | 261231
16 | 58:03.07 | 4:38.59 | 261232 | 282140

Характеристики диапазона извлечения и сообщения об ошибках

Выбранный диапазон

Имя файла E:\Paul McCartney\Good Evening New York City\Disc2\Paul McCartney – Good Evening New York City (CD2).wav

Пиковый уровень 100.0 %
Качество диапазона 100.0 %
CRC теста 07AE98C8
CRC копии 07AE98C8
Копирование… OK

Ошибок не произошло

AccurateRip: сводка

Трек 1 точное извлечение (доверие 67) [C0DE51DE]
Трек 2 точное извлечение (доверие 67) [FEBCA016]
Трек 3 точное извлечение (доверие 68) [B0D0445D]
Трек 4 точное извлечение (доверие 67) [B471F5FA]
Трек 5 точное извлечение (доверие 67) [9397F954]
Трек 6 точное извлечение (доверие 67) [C48C2EFC]
Трек 7 точное извлечение (доверие 67) [EC650B82]
Трек 8 точное извлечение (доверие 67) [6C39ABDC]
Трек 9 точное извлечение (доверие 67) [3616F79E]
Трек 10 точное извлечение (доверие 67) [7DADCD7E]
Трек 11 точное извлечение (доверие 67) [C1A9CD74]
Трек 12 точное извлечение (доверие 66) [E93B7B2E]
Трек 13 точное извлечение (доверие 67) [8BE32876]
Трек 14 точное извлечение (доверие 67) [F1E7D487]
Трек 15 точное извлечение (доверие 67) [2B538578]
Трек 16 точное извлечение (доверие 67) [2E75D08A]

Все треки извлечены точно

Конец отчёта

REM GENRE Rock
REM DATE 2009
REM DISCID D30EB110
REM COMMENT “ExactAudioCopy v0.99pb5”
PERFORMER “Paul McCartney”
TITLE “Good Evening New York City (CD2)”
FILE “Paul McCartney – Good Evening New York City (CD2).flac” WAVE
TRACK 01 AUDIO
TITLE “Back In The USSR”
PERFORMER “Paul McCartney”
INDEX 00 00:00:00
INDEX 01 00:00:14
TRACK 02 AUDIO
TITLE “I’m Down”
PERFORMER “Paul McCartney”
INDEX 01 03:12:52
TRACK 03 AUDIO
TITLE “Something”
PERFORMER “Paul McCartney”
INDEX 01 05:32:13
TRACK 04 AUDIO
TITLE “I’ve Got A Feeling”
PERFORMER “Paul McCartney”
INDEX 01 09:35:68
TRACK 05 AUDIO
TITLE “Paperback Writer”
PERFORMER “Paul McCartney”
INDEX 01 15:24:19
TRACK 06 AUDIO
TITLE “A Day In A Live/Give Peace A Chance”
PERFORMER “Paul McCartney”
INDEX 01 18:49:23
TRACK 07 AUDIO
TITLE “Let It Be”
PERFORMER “Paul McCartney”
INDEX 01 24:31:22
TRACK 08 AUDIO
TITLE “Live And Let Die”
PERFORMER “Paul McCartney”
INDEX 01 28:26:04
TRACK 09 AUDIO
TITLE “Hey Jude”
PERFORMER “Paul McCartney”
INDEX 01 31:38:09
TRACK 10 AUDIO
TITLE “Day Tripper”
PERFORMER “Paul McCartney”
INDEX 01 39:00:65
TRACK 11 AUDIO
TITLE “Laydy Madonna”
PERFORMER “Paul McCartney”
INDEX 01 42:11:02
TRACK 12 AUDIO
TITLE “I Saw Her Standing There”
PERFORMER “Paul McCartney”
INDEX 01 44:41:09
TRACK 13 AUDIO
TITLE “Yesterday”
PERFORMER “Paul McCartney”
INDEX 01 47:50:26
TRACK 14 AUDIO
TITLE “Helter Skelter”
PERFORMER “Paul McCartney”
INDEX 01 50:04:16
TRACK 15 AUDIO
TITLE “Get Back”
PERFORMER “Paul McCartney”
INDEX 01 53:51:66
TRACK 16 AUDIO
TITLE “Sgt.Pepper’s Lonely Hearts Club Band/The End”
PERFORMER “Paul McCartney”
INDEX 01 58:03:07

REM GENRE Rock
REM DATE 2009
REM DISCID F30E2F11
REM COMMENT “ExactAudioCopy v0.99pb5”
PERFORMER “Paul McCartney”
TITLE “Good Evening New York City (Disc 1 of 2)”
FILE “Paul McCartney – Good Evening New York City (Disc 1 of 2).flac” WAVE
TRACK 01 AUDIO
TITLE “Drive My Car”
PERFORMER “Paul McCartney”
INDEX 00 00:00:00
INDEX 01 00:00:13
TRACK 02 AUDIO
TITLE “Jet”
PERFORMER “Paul McCartney”
INDEX 01 02:36:31
TRACK 03 AUDIO
TITLE “Only Mama Knows”
PERFORMER “Paul McCartney”
INDEX 01 06:56:16
TRACK 04 AUDIO
TITLE “Flaming Pie”
PERFORMER “Paul McCartney”
INDEX 01 10:34:67
TRACK 05 AUDIO
TITLE “Got To Get You Into My Life”
PERFORMER “Paul McCartney”
INDEX 01 12:59:32
TRACK 06 AUDIO
TITLE “Let Me Roll It”
PERFORMER “Paul McCartney”
INDEX 01 15:49:70
TRACK 07 AUDIO
TITLE “Highway”
PERFORMER “Paul McCartney”
INDEX 01 21:39:57
TRACK 08 AUDIO
TITLE “The Long And Winding Road”
PERFORMER “Paul McCartney”
INDEX 01 25:36:49
TRACK 09 AUDIO
TITLE “My Love”
PERFORMER “Paul McCartney”
INDEX 01 29:12:72
TRACK 10 AUDIO
TITLE “Blackbird”
PERFORMER “Paul McCartney”
INDEX 01 33:07:73
TRACK 11 AUDIO
TITLE “Here Today”
PERFORMER “Paul McCartney”
INDEX 01 35:49:44
TRACK 12 AUDIO
TITLE “Dance Tonight”
PERFORMER “Paul McCartney”
INDEX 01 38:16:63
TRACK 13 AUDIO
TITLE “Calico Skies”
PERFORMER “Paul McCartney”
INDEX 01 41:15:59
TRACK 14 AUDIO
TITLE “Mrs. Vandebilt”
PERFORMER “Paul McCartney”
INDEX 01 43:50:65
TRACK 15 AUDIO
TITLE “Eleanor Rigby”
PERFORMER “Paul McCartney”
INDEX 01 48:30:23
TRACK 16 AUDIO
TITLE “Sing The Changes”
PERFORMER “Paul McCartney”
INDEX 01 50:52:20
TRACK 17 AUDIO
TITLE “Band On The Run”
PERFORMER “Paul McCartney”
INDEX 01 55:05:59


Leave a Reply

Your email address will not be published. Required fields are marked *

Enter the text from the image below
 

This site uses Akismet to reduce spam. Learn how your comment data is processed.