Paul McCartney – Give My Regards To Broad Street (Remastered)




No Cover available

Artist: Paul McCartney
Year: 1984/1993
Genre: Rock
Notes: Discogs
Add. Notes: Remastered
Watch Songs on: YouTube
Cover incl.: Yes
Encoder: FLAC
Bitrate: ~800 kBit/s (44.1 kHz/16 Bit/s)
Log & Cue incl.: Yes/Yes
Size: 454,1 MB
Password: “slam” (without ” “)


All Downloads/Hosters are compatible

Download 1
KatFile.com
Turbobit.net
FileFactory.com
Rapidgator.net
Download 2
KatFile.com
Turbobit.net
FileFactory.com
Rapidgator.net

Tracklist:

1 No More Lonely Nights (Ballad) 5:12
2 Good Day Sunshine / Corridor Music 2:33
3 Yesterday 1:43
4 Here, There And Everywhere 1:43
5 Wanderlust 4:07
6 Ballroom Dancing 4:51
7 Silly Love Songs / Reprise 5:27
8 Not Such A Bad Boy 3:29
9 So Bad 3:25
10 No Values / No More Lonely Nights 4:12
11 For No One 2:12
12 Eleanor Rigby / Eleanor's Dream 9:12
13 The Long And Winding Road 3:57
14 No More Lonely Nights (Playout Version) 5:07
15 Good Night Princess 4:08

Bonus Tracks
16 No More Lonely Nights (Extended Version) 8:12
17 No More Lonely Nights (Special Dance Mix) 4:21

EAC-Log, CUE-Sheed & NFO:

Click to open spoiler
Exact Audio Copy V0.99 prebeta 5 from 4. May 2009

Отчёт EAC об извлечении, выполненном 28. февраля 2011, 13:50

Paul McCartney / Give My Regards To Broad Street

Дисковод: Optiarc DVD RW AD-7240S Adapter: 1 ID: 0

Режим чтения : Достоверность
Использование точного потока : Да
Отключение кэша аудио : Да
Использование указателей C2 : Нет

Коррекция смещения при чтении : 48
Способность читать области Lead-in и Lead-out : Нет
Заполнение пропущенных сэмплов тишиной : Да
Удаление блоков с тишиной в начале и конце : Нет
При вычислениях CRC использовались нулевые сэмплы : Да
Интерфейс : Встроенный Win32-интерфейс для Win NT/2000

Выходной формат : Пользовательский кодировщик
Выбранный битрейт : 768 kBit/s
Качество : Высокий
Добавление ID3-тэга : Нет
Утилита сжатия : C:\Program Files\Exact Audio Copy\FLAC\FLAC.EXE
Дополнительные параметры : -6 -V -T “ARTIST=%a” -T “TITLE=%t” -T “ALBUM=%g” -T “DATE=%y” -T “TRACKNUMBER=%n” -T “GENRE=%m” -T “COMMENT=%e” %s -o %d

TOC извлечённого CD

Трек | Старт | Длительность | Начальный сектор | Конечный сектор
———————————————————————
1 | 0:00.33 | 5:12.57 | 33 | 23489
2 | 5:13.15 | 2:33.18 | 23490 | 34982
3 | 7:46.33 | 1:42.47 | 34983 | 42679
4 | 9:29.05 | 1:43.10 | 42680 | 50414
5 | 11:12.15 | 4:07.05 | 50415 | 68944
6 | 15:19.20 | 4:51.00 | 68945 | 90769
7 | 20:10.20 | 5:27.25 | 90770 | 115319
8 | 25:37.45 | 3:28.68 | 115320 | 130987
9 | 29:06.38 | 3:24.42 | 130988 | 146329
10 | 32:31.05 | 4:12.05 | 146330 | 165234
11 | 36:43.10 | 2:12.35 | 165235 | 175169
12 | 38:55.45 | 9:12.03 | 175170 | 216572
13 | 48:07.48 | 3:56.67 | 216573 | 234339
14 | 52:04.40 | 5:07.15 | 234340 | 257379
15 | 57:11.55 | 4:07.65 | 257380 | 275969
16 | 61:19.45 | 8:11.15 | 275970 | 312809
17 | 69:30.60 | 4:21.20 | 312810 | 332404

Характеристики диапазона извлечения и сообщения об ошибках

Выбранный диапазон

Имя файла E:\Paul McCartney\1984 Give My Regards To Broad Street\Paul McCartney – Give My Regards To Broad Street.wav

Пиковый уровень 97.7 %
Качество диапазона 99.9 %
CRC теста 4E7CE6AC
CRC копии 4E7CE6AC
Копирование… OK

Ошибок не произошло

AccurateRip: сводка

Трек 1 точное извлечение (доверие 16) [07CD6228]
Трек 2 точное извлечение (доверие 15) [5D8F68F8]
Трек 3 точное извлечение (доверие 15) [DE3B62AA]
Трек 4 точное извлечение (доверие 15) [EE0EFB2C]
Трек 5 точное извлечение (доверие 15) [A5AD3BE1]
Трек 6 точное извлечение (доверие 14) [1CD33CEF]
Трек 7 точное извлечение (доверие 14) [4D0706BF]
Трек 8 точное извлечение (доверие 16) [B8A1D8EB]
Трек 9 точное извлечение (доверие 15) [B722BE9B]
Трек 10 точное извлечение (доверие 14) [4BE3FD9B]
Трек 11 точное извлечение (доверие 14) [3FB35CED]
Трек 12 точное извлечение (доверие 15) [C019C600]
Трек 13 точное извлечение (доверие 15) [856C706A]
Трек 14 точное извлечение (доверие 14) [6A8B0CF6]
Трек 15 точное извлечение (доверие 14) [1CC99B81]
Трек 16 точное извлечение (доверие 12) [34BC8C51]
Трек 17 точное извлечение (доверие 14) [7373482D]

Все треки извлечены точно

Конец отчёта

REM GENRE Soundtrack
REM DATE 1984
REM DISCID F1115011
REM COMMENT “ExactAudioCopy v0.99pb5”
PERFORMER “Paul McCartney”
TITLE “Give My Regards To Broad Street”
FILE “Paul McCartney – Give My Regards To Broad Street.flac” WAVE
TRACK 01 AUDIO
TITLE “No More Lonely Nights (Ballad)”
PERFORMER “Paul McCartney”
INDEX 00 00:00:00
INDEX 01 00:00:33
TRACK 02 AUDIO
TITLE “Good Day Sunshine/Corridor Music”
PERFORMER “Paul McCartney”
INDEX 00 05:13:13
INDEX 01 05:13:15
TRACK 03 AUDIO
TITLE “Yesterday”
PERFORMER “Paul McCartney”
INDEX 00 07:46:30
INDEX 01 07:46:33
TRACK 04 AUDIO
TITLE “Here, There And Everywhere”
PERFORMER “Paul McCartney”
INDEX 00 09:29:03
INDEX 01 09:29:05
TRACK 05 AUDIO
TITLE “Wanderlust”
PERFORMER “Paul McCartney”
INDEX 00 11:12:13
INDEX 01 11:12:15
TRACK 06 AUDIO
TITLE “Ballrooom Dancing”
PERFORMER “Paul McCartney”
INDEX 00 15:19:18
INDEX 01 15:19:20
TRACK 07 AUDIO
TITLE “Silly Love Songs/Reprise”
PERFORMER “Paul McCartney”
INDEX 00 20:10:19
INDEX 01 20:10:20
TRACK 08 AUDIO
TITLE “Not Such A Bad Boy”
PERFORMER “Paul McCartney”
INDEX 00 25:37:43
INDEX 01 25:37:45
TRACK 09 AUDIO
TITLE “So Bad”
PERFORMER “Paul McCartney”
INDEX 00 29:06:35
INDEX 01 29:06:38
TRACK 10 AUDIO
TITLE “No Values/No More Lonely Nights (Ballad Reprise)”
PERFORMER “Paul McCartney”
INDEX 00 32:31:03
INDEX 01 32:31:05
TRACK 11 AUDIO
TITLE “For No One”
PERFORMER “Paul McCartney”
INDEX 00 36:43:08
INDEX 01 36:43:10
TRACK 12 AUDIO
TITLE “Eleanor Rigby/Eleanor’s Dream”
PERFORMER “Paul McCartney”
INDEX 00 38:55:44
INDEX 01 38:55:45
TRACK 13 AUDIO
TITLE “The Long And Winding Road”
PERFORMER “Paul McCartney”
INDEX 00 48:06:08
INDEX 01 48:07:48
TRACK 14 AUDIO
TITLE “No More Lonely Nights (Playout Version)”
PERFORMER “Paul McCartney”
INDEX 00 52:04:38
INDEX 01 52:04:40
TRACK 15 AUDIO
TITLE “Goodnight Princess”
PERFORMER “Paul McCartney”
INDEX 00 57:07:40
INDEX 01 57:11:55
TRACK 16 AUDIO
TITLE “No More Lonely Nights (Extended Version)”
PERFORMER “Paul McCartney”
INDEX 00 61:09:58
INDEX 01 61:19:45
TRACK 17 AUDIO
TITLE “No More Lonely Nights (Special Dance Mix)”
PERFORMER “Paul McCartney”
INDEX 00 69:29:08
INDEX 01 69:30:60


Leave a Reply

Your email address will not be published. Required fields are marked *

Enter the text from the image below
 

This site uses Akismet to reduce spam. Learn how your comment data is processed.