Paul McCartney – Driving Rain




No Cover available


Artist: Paul McCartney
Year: 2001
Genre: Rock
Notes: Discogs
Add. Notes:
Watch Songs on: YouTube
Cover incl.: Yes
Encoder: FLAC
Bitrate: ~900 kBit/s (44.1 kHz/16 Bit/s)
Log & Cue incl.: Yes/Yes
Size: 440,1 MB
Password: “slam” (without ” “)


All Downloads/Hosters are compatible

Download 1
KatFile.com
Turbobit.net
Rapidgator.net
FileFactory.com
Download 2
KatFile.com
Turbobit.net
Rapidgator.net
FileFactory.com

Tracklist:

1 Lonely Road 3:16
2 From A Lover To A Friend 3:48
3 She's Given Up Talking 4:57
4 Driving Rain 3:26
5 I Do 2:56
6 Tiny Bubble 4:21
7 Magic 3:59
8 Your Way 2:55
9 Spinning On An Axis 5:16
10 About You 2:54
11 Heather 3:26
12 Back In The Sunshine Again 4:21
13 Your Loving Flame 3:43
14 Riding Into Jaipur 4:08
15 Rinse The Raindrops 10:08
16 Freedom (Studio Mix) 3:34

EAC-Log, CUE-Sheed & NFO:

Click to open spoiler
Exact Audio Copy V0.99 prebeta 5 from 4. May 2009

Отчёт EAC об извлечении, выполненном 20. октября 2009, 10:55

Paul McCartney / Driving Rain

Дисковод: MATSHITADVD-RAM UJ-850S Adapter: 1 ID: 0

Режим чтения : Достоверность
Использование точного потока : Да
Отключение кэша аудио : Да
Использование указателей C2 : Нет

Коррекция смещения при чтении : 102
Способность читать области Lead-in и Lead-out : Нет
Заполнение пропущенных сэмплов тишиной : Да
Удаление блоков с тишиной в начале и конце : Нет
При вычислениях CRC использовались нулевые сэмплы : Да
Интерфейс : Встроенный Win32-интерфейс для Win NT/2000

Выходной формат : Пользовательский кодировщик
Выбранный битрейт : 1024 kBit/s
Качество : Высокий
Добавление ID3-тэга : Нет
Утилита сжатия : C:\Program Files\Exact Audio Copy\Flac\flac.exe
Дополнительные параметры : -8 -V -T “ARTIST=%a” -T “TITLE=%t” -T “ALBUM=%g” -T “DATE=%y” -T “TRACKNUMBER=%n” -T “TOTALTRACKS=%x” -T “GENRE=%m” -T “ALBUM ARTIST=%v” -T “ALBUMARTIST=%v” -T “COMMENT=EAC V0.99 prebeta 5, Secure Mode, AccurateRip, FLAC -8” %s

TOC извлечённого CD

Трек | Старт | Длительность | Начальный сектор | Конечный сектор
———————————————————————
1 | 0:00.00 | 3:16.22 | 0 | 14721
2 | 3:16.22 | 3:48.38 | 14722 | 31859
3 | 7:04.60 | 4:57.17 | 31860 | 54151
4 | 12:02.02 | 3:27.30 | 54152 | 69706
5 | 15:29.32 | 2:56.25 | 69707 | 82931
6 | 18:25.57 | 4:21.10 | 82932 | 102516
7 | 22:46.67 | 3:58.45 | 102517 | 120411
8 | 26:45.37 | 2:55.15 | 120412 | 133551
9 | 29:40.52 | 5:16.30 | 133552 | 157281
10 | 34:57.07 | 2:54.28 | 157282 | 170359
11 | 37:51.35 | 3:25.55 | 170360 | 185789
12 | 41:17.15 | 4:22.32 | 185790 | 205471
13 | 45:39.47 | 3:43.38 | 205472 | 222234
14 | 49:23.10 | 4:07.62 | 222235 | 240821
15 | 53:30.72 | 10:12.53 | 240822 | 286774
16 | 63:43.50 | 3:33.67 | 286775 | 302816

Характеристики диапазона извлечения и сообщения об ошибках

Выбранный диапазон

Имя файла H:\MP3\Paul McCartney discography\2001.Driving Rain\Paul McCartney – Driving Rain.wav

Пиковый уровень 96.5 %
Качество диапазона 99.9 %
CRC теста 25BC80B9
CRC копии 25BC80B9
Копирование… OK

Ошибок не произошло

AccurateRip: сводка

Трек 1 точное извлечение (доверие 32) [780C2E0F]
Трек 2 точное извлечение (доверие 32) [16AA9B6D]
Трек 3 точное извлечение (доверие 32) [D7FEB4E8]
Трек 4 точное извлечение (доверие 32) [D9459C9E]
Трек 5 точное извлечение (доверие 32) [B4D176A8]
Трек 6 точное извлечение (доверие 32) [7712AB03]
Трек 7 точное извлечение (доверие 32) [D30E9902]
Трек 8 точное извлечение (доверие 32) [C582DA08]
Трек 9 точное извлечение (доверие 32) [164C336E]
Трек 10 точное извлечение (доверие 32) [92E0798B]
Трек 11 точное извлечение (доверие 32) [EB199D2A]
Трек 12 точное извлечение (доверие 32) [ED26FF3D]
Трек 13 точное извлечение (доверие 31) [F755A2EF]
Трек 14 точное извлечение (доверие 32) [D6E40A14]
Трек 15 точное извлечение (доверие 31) [75FB9294]
Трек 16 точное извлечение (доверие 31) [D7359662]

Все треки извлечены точно

Конец отчёта

REM GENRE Rock
REM DATE 2001
REM DISCID EB0FC510
REM COMMENT “ExactAudioCopy v0.99pb5”
PERFORMER “Paul McCartney”
TITLE “Driving Rain”
FILE “Paul McCartney – Driving Rain.flac” WAVE
TRACK 01 AUDIO
TITLE “Lonely Road”
PERFORMER “Paul McCartney”
INDEX 01 00:00:00
TRACK 02 AUDIO
TITLE “From A Lover To A Friend”
PERFORMER “Paul McCartney”
INDEX 01 03:16:22
TRACK 03 AUDIO
TITLE “She’s Given Up Talking”
PERFORMER “Paul McCartney”
INDEX 01 07:04:60
TRACK 04 AUDIO
TITLE “Driving Rain”
PERFORMER “Paul McCartney”
INDEX 01 12:02:02
TRACK 05 AUDIO
TITLE “I Do”
PERFORMER “Paul McCartney”
INDEX 00 15:28:32
INDEX 01 15:29:32
TRACK 06 AUDIO
TITLE “Tiny Bubble”
PERFORMER “Paul McCartney”
INDEX 01 18:25:57
TRACK 07 AUDIO
TITLE “Magic”
PERFORMER “Paul McCartney”
INDEX 01 22:46:67
TRACK 08 AUDIO
TITLE “Your Way”
PERFORMER “Paul McCartney”
INDEX 01 26:45:37
TRACK 09 AUDIO
TITLE “Spinning On An Axis”
PERFORMER “Paul McCartney”
INDEX 01 29:40:52
TRACK 10 AUDIO
TITLE “About You”
PERFORMER “Paul McCartney”
INDEX 01 34:57:07
TRACK 11 AUDIO
TITLE “Heather”
PERFORMER “Paul McCartney”
INDEX 01 37:51:35
TRACK 12 AUDIO
TITLE “Back In The Sunshine Again”
PERFORMER “Paul McCartney”
INDEX 01 41:17:15
TRACK 13 AUDIO
TITLE “Your Loving Flame”
PERFORMER “Paul McCartney”
INDEX 00 45:38:15
INDEX 01 45:39:47
TRACK 14 AUDIO
TITLE “Riding Into Jaipur”
PERFORMER “Paul McCartney”
INDEX 01 49:23:10
TRACK 15 AUDIO
TITLE “Rinse The Raindrops”
PERFORMER “Paul McCartney”
INDEX 01 53:30:72
TRACK 16 AUDIO
TITLE “Freedom”
PERFORMER “Paul McCartney”
INDEX 00 63:39:17
INDEX 01 63:43:50


Leave a Reply

Your email address will not be published. Required fields are marked *

Enter the text from the image below
 

This site uses Akismet to reduce spam. Learn how your comment data is processed.