Paul McCartney – Chaos And Creation In The Backyard




No Cover available

Artist: Paul McCartney
Year: 2005
Genre: Rock
Notes: Discogs
Add. Notes:
Watch Songs on: YouTube
Cover incl.: Yes
Encoder: FLAC
Bitrate: ~900 kBit/s (44.1 kHz/16 Bit/s)
Log & Cue incl.: Yes/Yes
Size: 304,9 MB
Password: “slam” (without ” “)


All Downloads/Hosters are compatible

Download 1
KatFile.com
Turbobit.net
FileFactory.com
Rapidgator.net
Download 2
KatFile.com
Turbobit.net
FileFactory.com
Rapidgator.net

Tracklist:

1 Fine Line 3:05
2 How Kind Of You 4:47
3 Jenny Wren 3:47
4 At The Mercy 2:38
5 Friends To Go 2:43
6 English Tea 2:12
7 Too Much Rain 3:24
8 A Certain Softness 2:42
9 Riding To Vanity Fair 5:07
10 Follow Me 2:31
11 Promise To You Girl 3:10
12 This Never Happened Before 3:26
13.1 Anyway 3:50
13.2 I've Only Got Two Hands 3:13

EAC-Log, CUE-Sheed & NFO:

Click to open spoiler
Exact Audio Copy V0.99 prebeta 5 from 4. May 2009

Отчёт EAC об извлечении, выполненном 5. ноября 2009, 18:04

Paul McCartney / Chaos And Creation In The Backyard

Дисковод: MATSHITADVD-RAM UJ-850S Adapter: 1 ID: 0

Режим чтения : Достоверность
Использование точного потока : Да
Отключение кэша аудио : Да
Использование указателей C2 : Нет

Коррекция смещения при чтении : 102
Способность читать области Lead-in и Lead-out : Нет
Заполнение пропущенных сэмплов тишиной : Да
Удаление блоков с тишиной в начале и конце : Нет
При вычислениях CRC использовались нулевые сэмплы : Да
Интерфейс : Встроенный Win32-интерфейс для Win NT/2000
Обработка зазоров : Добавлено к предыдущему треку

Выходной формат : Пользовательский кодировщик
Выбранный битрейт : 1024 kBit/s
Качество : Высокий
Добавление ID3-тэга : Нет
Утилита сжатия : C:\Program Files\Exact Audio Copy\Flac\flac.exe
Дополнительные параметры : -8 -V -T “ARTIST=%a” -T “TITLE=%t” -T “ALBUM=%g” -T “DATE=%y” -T “TRACKNUMBER=%n” -T “TOTALTRACKS=%x” -T “GENRE=%m” -T “ALBUM ARTIST=%v” -T “ALBUMARTIST=%v” -T “COMMENT=EAC V0.99 prebeta 5, Secure Mode, AccurateRip, FLAC -8” %s

TOC извлечённого CD

Трек | Старт | Длительность | Начальный сектор | Конечный сектор
———————————————————————
1 | 0:00.00 | 3:05.27 | 0 | 13901
2 | 3:05.27 | 4:47.20 | 13902 | 35446
3 | 7:52.47 | 3:46.54 | 35447 | 52450
4 | 11:39.26 | 2:37.74 | 52451 | 64299
5 | 14:17.25 | 2:43.08 | 64300 | 76532
6 | 17:00.33 | 2:12.00 | 76533 | 86432
7 | 19:12.33 | 3:24.24 | 86433 | 101756
8 | 22:36.57 | 2:41.72 | 101757 | 113903
9 | 25:18.54 | 5:06.54 | 113904 | 136907
10 | 30:25.33 | 2:31.30 | 136908 | 148262
11 | 32:56.63 | 3:09.38 | 148263 | 162475
12 | 36:06.26 | 3:24.18 | 162476 | 177793
13 | 39:30.44 | 7:22.63 | 177794 | 211006
14 | 49:25.32 | 24:32.43 | 222407 | 332849

Трек 1

Имя файла H:\MP3\Paul McCartney discography\2005.Chaos and Creation in the Backyard\01 – Fine Line.wav

Длина предзазора 0:00:02.00

Пиковый уровень 94.3 %
Качество трека 99.4 %
CRC теста 02EDCD0D
CRC копии 02EDCD0D
Точное извлечение (достоверность 22) [91298E8D]
Копирование… OK

Трек 2

Имя файла H:\MP3\Paul McCartney discography\2005.Chaos and Creation in the Backyard\02 – How Kind of You.wav

Пиковый уровень 94.3 %
Качество трека 99.2 %
CRC теста 00E8A8CE
CRC копии 00E8A8CE
Точное извлечение (достоверность 22) [5DB00655]
Копирование… OK

Трек 3

Имя файла H:\MP3\Paul McCartney discography\2005.Chaos and Creation in the Backyard\03 – Jenny Wren.wav

Пиковый уровень 94.3 %
Качество трека 99.3 %
CRC теста B01E49FA
CRC копии B01E49FA
Точное извлечение (достоверность 21) [1B65F822]
Копирование… OK

Трек 4

Имя файла H:\MP3\Paul McCartney discography\2005.Chaos and Creation in the Backyard\04 – At the Mercy.wav

Пиковый уровень 94.3 %
Качество трека 99.6 %
CRC теста 5190D1EB
CRC копии 5190D1EB
Точное извлечение (достоверность 21) [FB31693B]
Копирование… OK

Трек 5

Имя файла H:\MP3\Paul McCartney discography\2005.Chaos and Creation in the Backyard\05 – Friends To Go.wav

Пиковый уровень 94.3 %
Качество трека 99.5 %
CRC теста 307CFFE0
CRC копии 307CFFE0
Точное извлечение (достоверность 23) [C013F01A]
Копирование… OK

Трек 6

Имя файла H:\MP3\Paul McCartney discography\2005.Chaos and Creation in the Backyard\06 – English Tea.wav

Пиковый уровень 94.3 %
Качество трека 99.5 %
CRC теста EFBD194B
CRC копии EFBD194B
Точное извлечение (достоверность 22) [61BFB48C]
Копирование… OK

Трек 7

Имя файла H:\MP3\Paul McCartney discography\2005.Chaos and Creation in the Backyard\07 – Too Much Rain.wav

Пиковый уровень 94.3 %
Качество трека 99.4 %
CRC теста FC114562
CRC копии FC114562
Точное извлечение (достоверность 22) [3F23506E]
Копирование… OK

Трек 8

Имя файла H:\MP3\Paul McCartney discography\2005.Chaos and Creation in the Backyard\08 – A Certain Softness.wav

Пиковый уровень 94.3 %
Качество трека 99.2 %
CRC теста 9CCAF316
CRC копии 9CCAF316
Точное извлечение (достоверность 24) [60B64891]
Копирование… OK

Трек 9

Имя файла H:\MP3\Paul McCartney discography\2005.Chaos and Creation in the Backyard\09 – Riding to Vanity Fair.wav

Пиковый уровень 94.3 %
Качество трека 99.5 %
CRC теста DFBC9F43
CRC копии DFBC9F43
Точное извлечение (достоверность 23) [66729E6C]
Копирование… OK

Трек 10

Имя файла H:\MP3\Paul McCartney discography\2005.Chaos and Creation in the Backyard\10 – Follow Me.wav

Пиковый уровень 94.3 %
Качество трека 99.6 %
CRC теста C4CA26F0
CRC копии C4CA26F0
Точное извлечение (достоверность 24) [86E1F7E5]
Копирование… OK

Трек 11

Имя файла H:\MP3\Paul McCartney discography\2005.Chaos and Creation in the Backyard\11 – Promise to You Girl.wav

Пиковый уровень 94.3 %
Качество трека 99.6 %
CRC теста E8E1BBC3
CRC копии E8E1BBC3
Точное извлечение (достоверность 24) [CB00E437]
Копирование… OK

Трек 12

Имя файла H:\MP3\Paul McCartney discography\2005.Chaos and Creation in the Backyard\12 – This Never Happened Before.wav

Пиковый уровень 96.0 %
Качество трека 99.5 %
CRC теста 016C1E24
CRC копии 016C1E24
Точное извлечение (достоверность 23) [7CF17C04]
Копирование… OK

Трек 13

Имя файла H:\MP3\Paul McCartney discography\2005.Chaos and Creation in the Backyard\13 – Anyway.wav

Пиковый уровень 94.3 %
Качество трека 99.6 %
CRC теста 0FB88F7C
CRC копии 0FB88F7C
Точное извлечение (достоверность 21) [77DA1093]
Копирование… OK

13 трек(и) скопированы точно

Ошибок не произошло

Конец отчёта

REM GENRE Pop
REM DATE 2005
REM DISCID CA11560E
REM COMMENT “ExactAudioCopy v0.99pb5”
PERFORMER “Paul McCartney”
TITLE “Chaos And Creation In The Backyard”
FILE “01 – Fine Line.wav” WAVE
TRACK 01 AUDIO
TITLE “Fine Line”
PERFORMER “Paul McCartney”
INDEX 01 00:00:00
FILE “02 – How Kind of You.wav” WAVE
TRACK 02 AUDIO
TITLE “How Kind of You”
PERFORMER “Paul McCartney”
INDEX 01 00:00:00
FILE “03 – Jenny Wren.wav” WAVE
TRACK 03 AUDIO
TITLE “Jenny Wren”
PERFORMER “Paul McCartney”
INDEX 01 00:00:00
FILE “04 – At the Mercy.wav” WAVE
TRACK 04 AUDIO
TITLE “At the Mercy”
PERFORMER “Paul McCartney”
INDEX 01 00:00:00
FILE “05 – Friends To Go.wav” WAVE
TRACK 05 AUDIO
TITLE “Friends To Go”
PERFORMER “Paul McCartney”
INDEX 01 00:00:00
FILE “06 – English Tea.wav” WAVE
TRACK 06 AUDIO
TITLE “English Tea”
PERFORMER “Paul McCartney”
INDEX 01 00:00:00
FILE “07 – Too Much Rain.wav” WAVE
TRACK 07 AUDIO
TITLE “Too Much Rain”
PERFORMER “Paul McCartney”
INDEX 01 00:00:00
FILE “08 – A Certain Softness.wav” WAVE
TRACK 08 AUDIO
TITLE “A Certain Softness”
PERFORMER “Paul McCartney”
INDEX 01 00:00:00
FILE “09 – Riding to Vanity Fair.wav” WAVE
TRACK 09 AUDIO
TITLE “Riding to Vanity Fair”
PERFORMER “Paul McCartney”
INDEX 01 00:00:00
FILE “10 – Follow Me.wav” WAVE
TRACK 10 AUDIO
TITLE “Follow Me”
PERFORMER “Paul McCartney”
INDEX 01 00:00:00
FILE “11 – Promise to You Girl.wav” WAVE
TRACK 11 AUDIO
TITLE “Promise to You Girl”
PERFORMER “Paul McCartney”
INDEX 01 00:00:00
FILE “12 – This Never Happened Before.wav” WAVE
TRACK 12 AUDIO
TITLE “This Never Happened Before”
PERFORMER “Paul McCartney”
INDEX 01 00:00:00
FILE “13 – Anyway.wav” WAVE
TRACK 13 AUDIO
TITLE “Anyway”
PERFORMER “Paul McCartney”
INDEX 01 00:00:00
TRACK 14 MODEx/2xxx
TITLE “Data”
PERFORMER “Paul McCartney”
INDEX 00 07:22:63


Leave a Reply

Your email address will not be published. Required fields are marked *

Enter the text from the image below
 

This site uses Akismet to reduce spam. Learn how your comment data is processed.