Paul McCartney – Back In The World Live




No Cover available

Artist: Paul McCartney
Year: 2003
Genre: Rock
Notes: Discogs
Add. Notes:
Watch Songs on: YouTube
Cover incl.: Yes
Encoder: FLAC
Bitrate: ~900 kBit/s (44.1 kHz/16 Bit/s)
Log & Cue incl.: Yes/Yes
Size: 871,4 MB
Password: “slam” (without ” “)


All Downloads/Hosters are compatible

Download 1
KatFile.com
Turbobit.net
Rapidgator.net
FileFactory.com
Download 2
KatFile.com
Turbobit.net
Rapidgator.net
FileFactory.com

Tracklist:

1-01 Hello Goodbye 
1-02 Jet 
1-03 All My Loving 
1-04 Getting Better 
1-05 Coming Up 
1-06 Let Me Roll It 
1-07 Lonely Road 
1-08 Driving Rain 
1-09 Your Loving Flame 
1-10 Blackbird 
1-11 Every Night 
1-12 We Can Work It Out 
1-13 Mother Nature's Son 
1-14 Carry That Weight 
1-15 The Fool On The Hill 
1-16 Here Today 
1-17 Something 
2-01 Eleanor Rigby 
2-02 Here, There And Everywhere 
2-03 Calico Skies 
2-04 Michelle 
2-05 Band On The Run 
2-06 Back In The USSR 
2-07 Maybe I'm Amazed 
2-08 Let 'Em In 
2-09 My Love 
2-10 She's Leaving Home 
2-11 Can't Buy Me Love 
2-12 Live And Let Die 
2-13 Let It Be 
2-14 Hey Jude 
2-15 The Long And Winding Road 
2-16 Lady Madonna 
2-17 I Saw Her Standing There 
2-18 Yesterday 
2-19 Sgt. Pepper's / The End

EAC-Log, CUE-Sheed & NFO:

Click to open spoiler
Exact Audio Copy V0.99 prebeta 5 from 4. May 2009

Отчёт EAC об извлечении, выполненном 19. октября 2009, 17:18

Paul McCartney / Back In The World – CD 1

Дисковод: MATSHITADVD-RAM UJ-850S Adapter: 1 ID: 0

Режим чтения : Достоверность
Использование точного потока : Да
Отключение кэша аудио : Да
Использование указателей C2 : Нет

Коррекция смещения при чтении : 102
Способность читать области Lead-in и Lead-out : Нет
Заполнение пропущенных сэмплов тишиной : Да
Удаление блоков с тишиной в начале и конце : Нет
При вычислениях CRC использовались нулевые сэмплы : Да
Интерфейс : Встроенный Win32-интерфейс для Win NT/2000

Выходной формат : Пользовательский кодировщик
Выбранный битрейт : 1024 kBit/s
Качество : Высокий
Добавление ID3-тэга : Нет
Утилита сжатия : C:\Program Files\Exact Audio Copy\Flac\flac.exe
Дополнительные параметры : -8 -V -T “ARTIST=%a” -T “TITLE=%t” -T “ALBUM=%g” -T “DATE=%y” -T “TRACKNUMBER=%n” -T “TOTALTRACKS=%x” -T “GENRE=%m” -T “ALBUM ARTIST=%v” -T “ALBUMARTIST=%v” -T “COMMENT=EAC V0.99 prebeta 5, Secure Mode, AccurateRip, FLAC -8” %s

TOC извлечённого CD

Трек | Старт | Длительность | Начальный сектор | Конечный сектор
———————————————————————
1 | 0:00.00 | 3:46.60 | 0 | 17009
2 | 3:46.60 | 4:02.45 | 17010 | 35204
3 | 7:49.30 | 2:08.60 | 35205 | 44864
4 | 9:58.15 | 3:10.02 | 44865 | 59116
5 | 13:08.17 | 3:26.15 | 59117 | 74581
6 | 16:34.32 | 4:24.23 | 74582 | 94404
7 | 20:58.55 | 3:12.10 | 94405 | 108814
8 | 24:10.65 | 3:11.05 | 108815 | 123144
9 | 27:21.70 | 3:28.65 | 123145 | 138809
10 | 30:50.60 | 2:30.32 | 138810 | 150091
11 | 33:21.17 | 2:51.18 | 150092 | 162934
12 | 36:12.35 | 2:29.55 | 162935 | 174164
13 | 38:42.15 | 2:11.22 | 174165 | 184011
14 | 40:53.37 | 3:05.60 | 184012 | 197946
15 | 43:59.22 | 3:09.00 | 197947 | 212121
16 | 47:08.22 | 2:28.30 | 212122 | 223251
17 | 49:36.52 | 2:33.03 | 223252 | 234729
18 | 54:41.55 | 19:16.20 | 246130 | 332849

Характеристики диапазона извлечения и сообщения об ошибках

Выбранный диапазон

Имя файла H:\MP3\Paul McCartney discography\2003.Back In The World\d1\Paul McCartney – Back In The World – CD 1.wav

Пиковый уровень 99.8 %
Качество диапазона 99.9 %
CRC теста E06B35F8
CRC копии E06B35F8
Копирование… OK

Ошибок не произошло

AccurateRip: сводка

Трек 1 точное извлечение (доверие 3) [C979DB4C]
Трек 2 точное извлечение (доверие 4) [2CD7457D]
Трек 3 точное извлечение (доверие 4) [1BDBA807]
Трек 4 точное извлечение (доверие 2) [7E4D1650]
Трек 5 точное извлечение (доверие 5) [47771704]
Трек 6 точное извлечение (доверие 4) [BA284766]
Трек 7 точность не определена (достоверность 10) [E6DC2E93], AccurateRip вернул [00B44C42]
Трек 8 точность не определена (достоверность 7) [6352E6AC], AccurateRip вернул [2F103402]
Трек 9 точность не определена (достоверность 6) [E6A872AF], AccurateRip вернул [4C9E299D]
Трек 10 точное извлечение (доверие 3) [D11790AF]
Трек 11 точное извлечение (доверие 3) [015956EA]
Трек 12 точное извлечение (доверие 4) [2CA50D28]
Трек 13 точное извлечение (доверие 2) [FD80F76B]
Трек 14 точное извлечение (доверие 2) [C200A64E]
Трек 15 точное извлечение (доверие 3) [5CC7DBC2]
Трек 16 точность не определена (достоверность 5) [2F8187C6], AccurateRip вернул [F88FCD74]
Трек 17 точное извлечение (доверие 3) [E0FE34FD]

13 трек(и) скопированы точно
4 трек(и) не удалось проверить на точность

Некоторые треки не прошли проверку на точность

Конец отчёта

Exact Audio Copy V0.99 prebeta 5 from 4. May 2009

Отчёт EAC об извлечении, выполненном 19. октября 2009, 19:59

Paul McCartney / Back In The World – CD 2

Дисковод: MATSHITADVD-RAM UJ-850S Adapter: 1 ID: 0

Режим чтения : Достоверность
Использование точного потока : Да
Отключение кэша аудио : Да
Использование указателей C2 : Нет

Коррекция смещения при чтении : 102
Способность читать области Lead-in и Lead-out : Нет
Заполнение пропущенных сэмплов тишиной : Да
Удаление блоков с тишиной в начале и конце : Нет
При вычислениях CRC использовались нулевые сэмплы : Да
Интерфейс : Встроенный Win32-интерфейс для Win NT/2000

Выходной формат : Пользовательский кодировщик
Выбранный битрейт : 1024 kBit/s
Качество : Высокий
Добавление ID3-тэга : Нет
Утилита сжатия : C:\Program Files\Exact Audio Copy\Flac\flac.exe
Дополнительные параметры : -8 -V -T “ARTIST=%a” -T “TITLE=%t” -T “ALBUM=%g” -T “DATE=%y” -T “TRACKNUMBER=%n” -T “TOTALTRACKS=%x” -T “GENRE=%m” -T “ALBUM ARTIST=%v” -T “ALBUMARTIST=%v” -T “COMMENT=EAC V0.99 prebeta 5, Secure Mode, AccurateRip, FLAC -8” %s

TOC извлечённого CD

Трек | Старт | Длительность | Начальный сектор | Конечный сектор
———————————————————————
1 | 0:00.00 | 2:17.37 | 0 | 10311
2 | 2:17.37 | 2:23.45 | 10312 | 21081
3 | 4:41.07 | 2:37.65 | 21082 | 32921
4 | 7:18.72 | 3:15.50 | 32922 | 47596
5 | 10:34.47 | 5:00.28 | 47597 | 70124
6 | 15:35.00 | 2:55.67 | 70125 | 83316
7 | 18:30.67 | 4:47.15 | 83317 | 104856
8 | 23:18.07 | 5:23.13 | 104857 | 129094
9 | 28:41.20 | 4:03.55 | 129095 | 147374
10 | 32:45.00 | 3:52.45 | 147375 | 164819
11 | 36:37.45 | 2:11.47 | 164820 | 174691
12 | 38:49.17 | 3:04.73 | 174692 | 188564
13 | 41:54.15 | 3:57.70 | 188565 | 206409
14 | 45:52.10 | 7:35.42 | 206410 | 240576
15 | 53:27.52 | 3:30.45 | 240577 | 256371
16 | 56:58.22 | 2:21.30 | 256372 | 266976
17 | 59:19.52 | 3:07.70 | 266977 | 281071
18 | 62:27.47 | 2:08.03 | 281072 | 290674
19 | 64:35.50 | 4:40.25 | 290675 | 311699
20 | 71:48.00 | 8:05.00 | 323100 | 359474

Характеристики диапазона извлечения и сообщения об ошибках

Выбранный диапазон

Имя файла H:\MP3\Paul McCartney discography\2003.Back In The World\d2\Paul McCartney – Back In The World – CD 2.wav

Пиковый уровень 99.8 %
Качество диапазона 100.0 %
CRC теста 8BD796C9
CRC копии 8BD796C9
Копирование… OK

Ошибок не произошло

AccurateRip: сводка

Трек 1 точность не определена (достоверность 7) [055B1B53], AccurateRip вернул [C34C9C01]
Трек 2 точность не определена (достоверность 9) [D1114947], AccurateRip вернул [B9BBBDDA]
Трек 3 точное извлечение (доверие 3) [45179569]
Трек 4 точное извлечение (доверие 3) [6D50B4A5]
Трек 5 точность не определена (достоверность 4) [95B7F414], AccurateRip вернул [E39DF781]
Трек 6 точное извлечение (доверие 2) [830D8CF9]
Трек 7 точность не определена (достоверность 5) [4A9F7622], AccurateRip вернул [497B19D9]
Трек 8 точность не определена (достоверность 6) [A5C9980C], AccurateRip вернул [1853406F]
Трек 9 точность не определена (достоверность 5) [71E4204E], AccurateRip вернул [9E450FD7]
Трек 10 точность не определена (достоверность 8) [496F3822], AccurateRip вернул [988CF1DD]
Трек 11 точное извлечение (доверие 5) [BAC3BBB5]
Трек 12 точность не определена (достоверность 4) [297CA298], AccurateRip вернул [85200258]
Трек 13 точное извлечение (доверие 2) [D3A2C6C4]
Трек 14 точность не определена (достоверность 4) [34B0C820], AccurateRip вернул [6E386543]
Трек 15 точность не определена (достоверность 6) [D07DEA86], AccurateRip вернул [F12EC20F]
Трек 16 точное извлечение (доверие 3) [ADE08EEF]
Трек 17 точность не определена (достоверность 7) [AEB3AE9A], AccurateRip вернул [CA6892FA]
Трек 18 точное извлечение (доверие 6) [0807271C]
Трек 19 точное извлечение (доверие 2) [0471918A]

8 трек(и) скопированы точно
11 трек(и) не удалось проверить на точность

Некоторые треки не прошли проверку на точность

Конец отчёта

REM GENRE Rock
REM DATE 2003
REM DISCID ED115612
REM COMMENT “ExactAudioCopy v0.99pb5”
PERFORMER “Paul McCartney”
TITLE “Back In The World – CD 1”
FILE “Paul McCartney – Back In The World – CD 1.flac” WAVE
TRACK 01 AUDIO
TITLE “Hello Goodbye (live)”
PERFORMER “Paul McCartney”
INDEX 01 00:00:00
TRACK 02 AUDIO
TITLE “Jet (live)”
PERFORMER “Paul McCartney”
INDEX 01 03:46:60
TRACK 03 AUDIO
TITLE “All My Loving (live)”
PERFORMER “Paul McCartney”
INDEX 01 07:49:30
TRACK 04 AUDIO
TITLE “Getting Better (live)”
PERFORMER “Paul McCartney”
INDEX 01 09:58:15
TRACK 05 AUDIO
TITLE “Coming Up (live)”
PERFORMER “Paul McCartney”
INDEX 01 13:08:17
TRACK 06 AUDIO
TITLE “Let Me Roll It (live)”
PERFORMER “Paul McCartney”
INDEX 01 16:34:32
TRACK 07 AUDIO
TITLE “Lonely Road (live)”
PERFORMER “Paul McCartney”
INDEX 01 20:58:55
TRACK 08 AUDIO
TITLE “Driving Rain (live)”
PERFORMER “Paul McCartney”
INDEX 01 24:10:65
TRACK 09 AUDIO
TITLE “Your Loving Flame (live)”
PERFORMER “Paul McCartney”
INDEX 01 27:21:70
TRACK 10 AUDIO
TITLE “Blackbird (live)”
PERFORMER “Paul McCartney”
INDEX 01 30:50:60
TRACK 11 AUDIO
TITLE “Every Night (live)”
PERFORMER “Paul McCartney”
INDEX 01 33:21:17
TRACK 12 AUDIO
TITLE “We Can Work It Out (live)”
PERFORMER “Paul McCartney”
INDEX 01 36:12:35
TRACK 13 AUDIO
TITLE “Mother Nature’s Son (live)”
PERFORMER “Paul McCartney”
INDEX 01 38:42:15
TRACK 14 AUDIO
TITLE “Carry That Weight (live)”
PERFORMER “Paul McCartney”
INDEX 01 40:53:37
TRACK 15 AUDIO
TITLE “The Fool On The Hill (live)”
PERFORMER “Paul McCartney”
INDEX 01 43:59:22
TRACK 16 AUDIO
TITLE “Here Today (live)”
PERFORMER “Paul McCartney”
INDEX 01 47:08:22
TRACK 17 AUDIO
TITLE “Something (live)”
PERFORMER “Paul McCartney”
INDEX 01 49:36:52

REM GENRE Rock
REM DATE 2003
REM DISCID 1112B914
REM COMMENT “ExactAudioCopy v0.99pb5”
PERFORMER “Paul McCartney”
TITLE “Back In The World – CD 2”
FILE “Paul McCartney – Back In The World – CD 2.flac” WAVE
TRACK 01 AUDIO
TITLE “Eleanor Rigby (live 2002)”
PERFORMER “Paul McCartney”
INDEX 01 00:00:00
TRACK 02 AUDIO
TITLE “Here, There And Everywhere (live 2002)”
PERFORMER “Paul McCartney”
INDEX 01 02:17:37
TRACK 03 AUDIO
TITLE “Calico Skies (live 2002)”
PERFORMER “Paul McCartney”
INDEX 01 04:41:07
TRACK 04 AUDIO
TITLE “Michelle (live 2002)”
PERFORMER “Paul McCartney”
INDEX 01 07:18:72
TRACK 05 AUDIO
TITLE “Band On The Run (live 2002)”
PERFORMER “Paul McCartney”
INDEX 01 10:34:47
TRACK 06 AUDIO
TITLE “Back In The USSR (live 2002)”
PERFORMER “Paul McCartney”
INDEX 01 15:35:00
TRACK 07 AUDIO
TITLE “Maybe I’m Amazed (live 2002)”
PERFORMER “Paul McCartney”
INDEX 01 18:30:67
TRACK 08 AUDIO
TITLE “Let ‘Em In (live 2002)”
PERFORMER “Paul McCartney”
INDEX 01 23:18:07
TRACK 09 AUDIO
TITLE “My Love (live 2002)”
PERFORMER “Paul McCartney”
INDEX 01 28:41:20
TRACK 10 AUDIO
TITLE “She’s Leaving Home (live 2002)”
PERFORMER “Paul McCartney”
INDEX 01 32:45:00
TRACK 11 AUDIO
TITLE “Can’t Buy Me Love (live 2002)”
PERFORMER “Paul McCartney”
INDEX 01 36:37:45
TRACK 12 AUDIO
TITLE “Live And Let Die (live 2002)”
PERFORMER “Paul McCartney”
INDEX 01 38:49:17
TRACK 13 AUDIO
TITLE “Let It Be (live 2002)”
PERFORMER “Paul McCartney”
INDEX 01 41:54:15
TRACK 14 AUDIO
TITLE “Hey Jude (live 2002)”
PERFORMER “Paul McCartney”
INDEX 01 45:52:10
TRACK 15 AUDIO
TITLE “The Long And Winding Road (live 2002)”
PERFORMER “Paul McCartney”
INDEX 01 53:27:52
TRACK 16 AUDIO
TITLE “Lady Madonna (live 2002)”
PERFORMER “Paul McCartney”
INDEX 01 56:58:22
TRACK 17 AUDIO
TITLE “I Saw Her Standing There (live 2002)”
PERFORMER “Paul McCartney”
INDEX 01 59:19:52
TRACK 18 AUDIO
TITLE “Yesterday (live 2002)”
PERFORMER “Paul McCartney”
INDEX 01 62:27:47
TRACK 19 AUDIO
TITLE “Sgt. Peppers / The End (live 2002)”
PERFORMER “Paul McCartney”
INDEX 01 64:35:50


Leave a Reply

Your email address will not be published. Required fields are marked *

Enter the text from the image below
 

This site uses Akismet to reduce spam. Learn how your comment data is processed.