Paul McCartney – Amoeba Gig




Artist: Paul McCartney
Year: 2019
Genre: Rock
Notes: Discogs
Add. Notes:
Cover incl.: Yes
Encoder: FLAC
Bitrate: ~1000 kBit/s (44.1 kHz/16 Bit/s)
Log & Cue incl.: Yes
Size: 555 MB
Password: “slam” (without ” “)


All Downloads/Hosters are compatible

Download 1
KatFile.com
Rapidgator.net
Turbobit.net
FileFactory.com
Download 2
KatFile.com
Rapidgator.net
Turbobit.net
FileFactory.com

Tracklist:

1. Drive My Car
2. Only Mama Knows
3. Dance Tonight
4. C Moon
5. The Long And Winding Road
6. I'll Follow The Sun
7. Calico Skies
8. That Was Me
9. Blackbird
10. Here Today
11. Back In The USSR
12. Nod Your Head
13. House Of Wax
14. I'Ve Got A Feeling
15. Matchbox
16. Get Back
17. Baby Face
18. Hey Jude
19. Let It Be
20. Lady Madonna
21. I Saw Her Standing There

EAC-Log, CUE-Sheed & NFO:

Click to open spoiler
Exact Audio Copy V1.3 from 2. September 2016

EAC extraction logfile from 21. September 2019, 17:55

Paul McCartney / Amoeba Gig

Used drive : ASUS DRW-24D5MT Adapter: 1 ID: 0

Read mode : Secure
Utilize accurate stream : Yes
Defeat audio cache : Yes
Make use of C2 pointers : No

Read offset correction : 6
Overread into Lead-In and Lead-Out : No
Fill up missing offset samples with silence : Yes
Delete leading and trailing silent blocks : No
Null samples used in CRC calculations : Yes
Used interface : Native Win32 interface for Win NT & 2000
Gap handling : Appended to previous track

Used output format : User Defined Encoder
Selected bitrate : 128 kBit/s
Quality : High
Add ID3 tag : No
Command line compressor : C:\Program Files (x86)\Exact Audio Copy\Flac\flac.exe
Additional command line options : -V -8 -T “Genre=%genre%” -T “Artist=%artist%” -T “Title=%title%” -T “Album=%albumtitle%” -T “Date=%year%” -T “Tracknumber=%tracknr%” -T “Comment=%comment%” %source%

TOC of the extracted CD

Track | Start | Length | Start sector | End sector
———————————————————
1 | 0:00.00 | 2:41.35 | 0 | 12109
2 | 2:41.35 | 3:58.38 | 12110 | 29997
3 | 6:39.73 | 3:25.18 | 29998 | 45390
4 | 10:05.16 | 3:12.58 | 45391 | 59848
5 | 13:17.74 | 3:34.15 | 59849 | 75913
6 | 16:52.14 | 2:55.58 | 75914 | 89096
7 | 19:47.72 | 2:56.69 | 89097 | 102365
8 | 22:44.66 | 3:04.48 | 102366 | 116213
9 | 25:49.39 | 3:44.29 | 116214 | 133042
10 | 29:33.68 | 3:12.74 | 133043 | 147516
11 | 32:46.67 | 4:08.33 | 147517 | 166149
12 | 36:55.25 | 2:00.11 | 166150 | 175160
13 | 38:55.36 | 6:01.56 | 175161 | 202291
14 | 44:57.17 | 5:56.20 | 202292 | 229011
15 | 50:53.37 | 3:31.20 | 229012 | 244856
16 | 54:24.57 | 4:20.38 | 244857 | 264394
17 | 58:45.20 | 0:54.03 | 264395 | 268447
18 | 59:39.23 | 8:00.41 | 268448 | 304488
19 | 67:39.64 | 3:53.51 | 304489 | 322014
20 | 71:33.40 | 3:34.11 | 322015 | 338075
21 | 75:07.51 | 3:39.69 | 338076 | 354569

Track 1

Filename C:\Users\Alex\Desktop\Рипы\Новая папка (2)\01. Drive My Car.wav

Pre-gap length 0:00:02.00

Peak level 99.8 %
Extraction speed 4.5 X
Track quality 100.0 %
Test CRC 848C60BA
Copy CRC 848C60BA
Cannot be verified as accurate (confidence 13) [8FADDA32], AccurateRip returned [6BC9E5D2] (AR v2)
Copy OK

Track 2

Filename C:\Users\Alex\Desktop\Рипы\Новая папка (2)\02. Only Mama Knows.wav

Peak level 99.8 %
Extraction speed 5.2 X
Track quality 100.0 %
Test CRC 8BFDCAFE
Copy CRC 8BFDCAFE
Cannot be verified as accurate (confidence 13) [A6296311], AccurateRip returned [02493BCA] (AR v2)
Copy OK

Track 3

Filename C:\Users\Alex\Desktop\Рипы\Новая папка (2)\03. Dance Tonight.wav

Peak level 99.8 %
Extraction speed 5.4 X
Track quality 100.0 %
Test CRC D3109761
Copy CRC D3109761
Cannot be verified as accurate (confidence 13) [5E137CAB], AccurateRip returned [A4BAD525] (AR v2)
Copy OK

Track 4

Filename C:\Users\Alex\Desktop\Рипы\Новая папка (2)\04. C Moon.wav

Peak level 99.8 %
Extraction speed 5.7 X
Track quality 100.0 %
Test CRC D5BFC465
Copy CRC D5BFC465
Cannot be verified as accurate (confidence 13) [41E416D8], AccurateRip returned [E32FD169] (AR v2)
Copy OK

Track 5

Filename C:\Users\Alex\Desktop\Рипы\Новая папка (2)\05. The Long And Winding Road.wav

Peak level 99.8 %
Extraction speed 6.1 X
Track quality 100.0 %
Test CRC F2B015B1
Copy CRC F2B015B1
Cannot be verified as accurate (confidence 13) [2F7B898C], AccurateRip returned [C893F415] (AR v2)
Copy OK

Track 6

Filename C:\Users\Alex\Desktop\Рипы\Новая папка (2)\06. I’ll Follow The Sun.wav

Peak level 99.8 %
Extraction speed 6.1 X
Track quality 100.0 %
Test CRC 6F16C896
Copy CRC 6F16C896
Cannot be verified as accurate (confidence 13) [E529D8A7], AccurateRip returned [63F84210] (AR v2)
Copy OK

Track 7

Filename C:\Users\Alex\Desktop\Рипы\Новая папка (2)\07. Calico Skies.wav

Peak level 99.8 %
Extraction speed 5.5 X
Track quality 99.9 %
Test CRC 450EC1F1
Copy CRC 450EC1F1
Cannot be verified as accurate (confidence 13) [59F41B4D], AccurateRip returned [5CEAC373] (AR v2)
Copy OK

Track 8

Filename C:\Users\Alex\Desktop\Рипы\Новая папка (2)\08. That Was Me.wav

Peak level 99.8 %
Extraction speed 6.6 X
Track quality 100.0 %
Test CRC 5DE30EDC
Copy CRC 5DE30EDC
Cannot be verified as accurate (confidence 13) [C8BF950A], AccurateRip returned [9138B532] (AR v2)
Copy OK

Track 9

Filename C:\Users\Alex\Desktop\Рипы\Новая папка (2)\09. Blackbird.wav

Peak level 99.8 %
Extraction speed 7.1 X
Track quality 100.0 %
Test CRC 1CCB3A2B
Copy CRC 1CCB3A2B
Cannot be verified as accurate (confidence 13) [9E613F46], AccurateRip returned [457F353D] (AR v2)
Copy OK

Track 10

Filename C:\Users\Alex\Desktop\Рипы\Новая папка (2)\10. Here Today.wav

Peak level 99.8 %
Extraction speed 7.1 X
Track quality 100.0 %
Test CRC DBDC35CF
Copy CRC DBDC35CF
Cannot be verified as accurate (confidence 13) [58E0FD55], AccurateRip returned [8C9C1F48] (AR v2)
Copy OK

Track 11

Filename C:\Users\Alex\Desktop\Рипы\Новая папка (2)\11. Back in the USSR.wav

Peak level 99.8 %
Extraction speed 7.7 X
Track quality 100.0 %
Test CRC 8F41A79D
Copy CRC 8F41A79D
Cannot be verified as accurate (confidence 13) [AA314B53], AccurateRip returned [309A5A74] (AR v2)
Copy OK

Track 12

Filename C:\Users\Alex\Desktop\Рипы\Новая папка (2)\12. Nod Your Head.wav

Peak level 99.8 %
Extraction speed 5.5 X
Track quality 99.9 %
Test CRC 87E492DD
Copy CRC 87E492DD
Cannot be verified as accurate (confidence 13) [A8D00DF6], AccurateRip returned [ED1C4A9A] (AR v2)
Copy OK

Track 13

Filename C:\Users\Alex\Desktop\Рипы\Новая папка (2)\13. House Of Wax.wav

Peak level 99.8 %
Extraction speed 8.5 X
Track quality 100.0 %
Test CRC 70430AE5
Copy CRC 70430AE5
Cannot be verified as accurate (confidence 13) [765D8083], AccurateRip returned [D92B1812] (AR v2)
Copy OK

Track 14

Filename C:\Users\Alex\Desktop\Рипы\Новая папка (2)\14. I’ve Got A Feeling.wav

Peak level 99.8 %
Extraction speed 8.9 X
Track quality 100.0 %
Test CRC 0E414C27
Copy CRC 0E414C27
Cannot be verified as accurate (confidence 13) [E411FCE0], AccurateRip returned [CAA83F27] (AR v2)
Copy OK

Track 15

Filename C:\Users\Alex\Desktop\Рипы\Новая папка (2)\15. Matchbox.wav

Peak level 99.8 %
Extraction speed 8.7 X
Track quality 100.0 %
Test CRC 756AFC72
Copy CRC 756AFC72
Cannot be verified as accurate (confidence 13) [128A8537], AccurateRip returned [31867010] (AR v2)
Copy OK

Track 16

Filename C:\Users\Alex\Desktop\Рипы\Новая папка (2)\16. Get Back.wav

Peak level 99.8 %
Extraction speed 9.1 X
Track quality 100.0 %
Test CRC 93F24026
Copy CRC 93F24026
Cannot be verified as accurate (confidence 13) [D598E45D], AccurateRip returned [D72EEDE6] (AR v2)
Copy OK

Track 17

Filename C:\Users\Alex\Desktop\Рипы\Новая папка (2)\17. Baby Face.wav

Peak level 99.6 %
Extraction speed 6.2 X
Track quality 100.0 %
Test CRC DA336283
Copy CRC DA336283
Cannot be verified as accurate (confidence 13) [9E60B63F], AccurateRip returned [5CC8EEE2] (AR v2)
Copy OK

Track 18

Filename C:\Users\Alex\Desktop\Рипы\Новая папка (2)\18. Hey Jude.wav

Peak level 99.8 %
Extraction speed 10.0 X
Track quality 100.0 %
Test CRC A0614985
Copy CRC A0614985
Cannot be verified as accurate (confidence 13) [19D6D2FA], AccurateRip returned [DA6E6355] (AR v2)
Copy OK

Track 19

Filename C:\Users\Alex\Desktop\Рипы\Новая папка (2)\19. Let It Be.wav

Peak level 99.8 %
Extraction speed 8.4 X
Track quality 99.9 %
Test CRC B03459D4
Copy CRC B03459D4
Cannot be verified as accurate (confidence 13) [0CC936BB], AccurateRip returned [C3BF69DC] (AR v2)
Copy OK

Track 20

Filename C:\Users\Alex\Desktop\Рипы\Новая папка (2)\20. Lady Madonna.wav

Peak level 99.8 %
Extraction speed 8.5 X
Track quality 99.9 %
Test CRC 7E71959C
Copy CRC 7E71959C
Cannot be verified as accurate (confidence 13) [34114B0C], AccurateRip returned [99C5CC64] (AR v2)
Copy OK

Track 21

Filename C:\Users\Alex\Desktop\Рипы\Новая папка (2)\21. I Saw Her Standing There.wav

Peak level 99.8 %
Extraction speed 7.5 X
Track quality 99.9 %
Test CRC C0E70EB3
Copy CRC C0E70EB3
Cannot be verified as accurate (confidence 13) [4A8C45FD], AccurateRip returned [7E5AAEC4] (AR v2)
Copy OK

No tracks could be verified as accurate
You may have a different pressing from the one(s) in the database

No errors occurred

End of status report

==== Log checksum 50FD69AEB7561D5911B9F74A846BDA6844549D6D17C3F094111AC9D084577C45 ====

REM GENRE “Classic Rock”
REM DATE 2019
REM DISCID 3F127715
REM COMMENT “ExactAudioCopy v1.3”
PERFORMER “Paul McCartney”
TITLE “Amoeba Gig”
REM COMPOSER “”
FILE “01. Drive My Car.wav” WAVE
TRACK 01 AUDIO
TITLE “Drive My Car”
PERFORMER “Paul McCartney”
REM COMPOSER “”
INDEX 01 00:00:00
FILE “02. Only Mama Knows.wav” WAVE
TRACK 02 AUDIO
TITLE “Only Mama Knows”
PERFORMER “Paul McCartney”
REM COMPOSER “”
INDEX 01 00:00:00
FILE “03. Dance Tonight.wav” WAVE
TRACK 03 AUDIO
TITLE “Dance Tonight”
PERFORMER “Paul McCartney”
REM COMPOSER “”
INDEX 01 00:00:00
FILE “04. C Moon.wav” WAVE
TRACK 04 AUDIO
TITLE “C Moon”
PERFORMER “Paul McCartney”
REM COMPOSER “”
INDEX 01 00:00:00
FILE “05. The Long And Winding Road.wav” WAVE
TRACK 05 AUDIO
TITLE “The Long And Winding Road”
PERFORMER “Paul McCartney”
REM COMPOSER “”
INDEX 01 00:00:00
FILE “06. I’ll Follow The Sun.wav” WAVE
TRACK 06 AUDIO
TITLE “I’ll Follow The Sun”
PERFORMER “Paul McCartney”
REM COMPOSER “”
INDEX 01 00:00:00
FILE “07. Calico Skies.wav” WAVE
TRACK 07 AUDIO
TITLE “Calico Skies”
PERFORMER “Paul McCartney”
REM COMPOSER “”
INDEX 01 00:00:00
FILE “08. That Was Me.wav” WAVE
TRACK 08 AUDIO
TITLE “That Was Me”
PERFORMER “Paul McCartney”
REM COMPOSER “”
INDEX 01 00:00:00
FILE “09. Blackbird.wav” WAVE
TRACK 09 AUDIO
TITLE “Blackbird”
PERFORMER “Paul McCartney”
REM COMPOSER “”
INDEX 01 00:00:00
FILE “10. Here Today.wav” WAVE
TRACK 10 AUDIO
TITLE “Here Today”
PERFORMER “Paul McCartney”
REM COMPOSER “”
INDEX 01 00:00:00
FILE “11. Back in the USSR.wav” WAVE
TRACK 11 AUDIO
TITLE “Back in the USSR”
PERFORMER “Paul McCartney”
REM COMPOSER “”
INDEX 01 00:00:00
FILE “12. Nod Your Head.wav” WAVE
TRACK 12 AUDIO
TITLE “Nod Your Head”
PERFORMER “Paul McCartney”
REM COMPOSER “”
INDEX 01 00:00:00
FILE “13. House Of Wax.wav” WAVE
TRACK 13 AUDIO
TITLE “House Of Wax”
PERFORMER “Paul McCartney”
REM COMPOSER “”
INDEX 01 00:00:00
FILE “14. I’ve Got A Feeling.wav” WAVE
TRACK 14 AUDIO
TITLE “I’ve Got A Feeling”
PERFORMER “Paul McCartney”
REM COMPOSER “”
INDEX 01 00:00:00
FILE “15. Matchbox.wav” WAVE
TRACK 15 AUDIO
TITLE “Matchbox”
PERFORMER “Paul McCartney”
REM COMPOSER “”
INDEX 01 00:00:00
FILE “16. Get Back.wav” WAVE
TRACK 16 AUDIO
TITLE “Get Back”
PERFORMER “Paul McCartney”
REM COMPOSER “”
INDEX 01 00:00:00
FILE “17. Baby Face.wav” WAVE
TRACK 17 AUDIO
TITLE “Baby Face”
PERFORMER “Paul McCartney”
REM COMPOSER “”
INDEX 01 00:00:00
FILE “18. Hey Jude.wav” WAVE
TRACK 18 AUDIO
TITLE “Hey Jude”
PERFORMER “Paul McCartney”
REM COMPOSER “”
INDEX 01 00:00:00
FILE “19. Let It Be.wav” WAVE
TRACK 19 AUDIO
TITLE “Let It Be”
PERFORMER “Paul McCartney”
REM COMPOSER “”
INDEX 01 00:00:00
FILE “20. Lady Madonna.wav” WAVE
TRACK 20 AUDIO
TITLE “Lady Madonna”
PERFORMER “Paul McCartney”
REM COMPOSER “”
INDEX 01 00:00:00
FILE “21. I Saw Her Standing There.wav” WAVE
TRACK 21 AUDIO
TITLE “I Saw Her Standing There”
PERFORMER “Paul McCartney”
REM COMPOSER “”
INDEX 01 00:00:00


Leave a Reply

Your email address will not be published. Required fields are marked *

Enter the text from the image below
 

This site uses Akismet to reduce spam. Learn how your comment data is processed.