Paul McCartney – All The Best!




Artist: Paul McCartney
Year: 1987
Genre: Rock
Notes: Discogs
Add. Notes:
Cover incl.: Yes
Encoder: FLAC
Bitrate: ~800 kBit/s (44.1 kHz/16 Bit/s)
Log & Cue incl.: Yes/Yes
Size: 432,4 MB
Password: “slam” (without ” “)


All Downloads/Hosters are compatible

Download 1
KatFile.com
Turbobit.net
FileFactory.com
Rapidgator.net
Download 2
KatFile.com
Turbobit.net
FileFactory.com
Rapidgator.net

Tracklist:

1. Wings - Band On The Run 
2. Wings - Jet 
3. Paul McCartney & Stevie Wonder Ebony And Ivory 
4. Wings - Listen To What The Man Said 
5. Paul McCartney No More Lonely Nights 
6. Wings - Silly Love Songs 
7. Wings - Let 'Em In 
8. Paul McCartney & Michael Jackson Say, Say, Say 
9. Wings - Live And Let Die 
10. Paul McCartney Another Day 
11. Wings - C Moon 
12. Wings - Junior's Farm 
13. Paul McCartney Uncle Albert / Admiral Halsey 
14. Paul McCartney Coming Up (Live At Glasgow) 
15. Wings - Goodnight Tonight 
16. Wings - With A Little Luck 
17. Wings - My Love

EAC-Log, CUE-Sheed & NFO:

Click to open spoiler
Exact Audio Copy V0.99 prebeta 5 from 4. May 2009

Отчёт EAC об извлечении, выполненном 28. февраля 2011, 12:26

Paul McCartney / All The Best

Дисковод: Optiarc DVD RW AD-7240S Adapter: 1 ID: 0

Режим чтения : Достоверность
Использование точного потока : Да
Отключение кэша аудио : Да
Использование указателей C2 : Нет

Коррекция смещения при чтении : 48
Способность читать области Lead-in и Lead-out : Нет
Заполнение пропущенных сэмплов тишиной : Да
Удаление блоков с тишиной в начале и конце : Нет
При вычислениях CRC использовались нулевые сэмплы : Да
Интерфейс : Встроенный Win32-интерфейс для Win NT/2000

Выходной формат : Пользовательский кодировщик
Выбранный битрейт : 768 kBit/s
Качество : Высокий
Добавление ID3-тэга : Нет
Утилита сжатия : C:\Program Files\Exact Audio Copy\FLAC\FLAC.EXE
Дополнительные параметры : -6 -V -T “ARTIST=%a” -T “TITLE=%t” -T “ALBUM=%g” -T “DATE=%y” -T “TRACKNUMBER=%n” -T “GENRE=%m” -T “COMMENT=%e” %s -o %d

TOC извлечённого CD

Трек | Старт | Длительность | Начальный сектор | Конечный сектор
———————————————————————
1 | 0:00.32 | 5:13.70 | 32 | 23576
2 | 5:14.27 | 4:09.65 | 23577 | 42316
3 | 9:24.17 | 3:43.10 | 42317 | 59051
4 | 13:07.27 | 3:56.60 | 59052 | 76811
5 | 17:04.12 | 4:41.05 | 76812 | 97891
6 | 21:45.17 | 5:55.70 | 97892 | 124586
7 | 27:41.12 | 5:11.18 | 124587 | 147929
8 | 32:52.30 | 3:56.10 | 147930 | 165639
9 | 36:48.40 | 3:13.37 | 165640 | 180151
10 | 40:02.02 | 3:43.13 | 180152 | 196889
11 | 43:45.15 | 4:35.00 | 196890 | 217514
12 | 48:20.15 | 4:23.00 | 217515 | 237239
13 | 52:43.15 | 4:41.70 | 237240 | 258384
14 | 57:25.10 | 3:30.72 | 258385 | 274206
15 | 60:56.07 | 4:20.70 | 274207 | 293776
16 | 65:17.02 | 3:14.68 | 293777 | 308394
17 | 68:31.70 | 4:08.67 | 308395 | 327061

Характеристики диапазона извлечения и сообщения об ошибках

Выбранный диапазон

Имя файла E:\Paul McCartney\1987 All The Best\Paul McCartney – All The Best.wav

Пиковый уровень 97.7 %
Качество диапазона 100.0 %
CRC теста D6F9FA92
CRC копии D6F9FA92
Копирование… OK

Ошибок не произошло

AccurateRip: сводка

Трек 1 точное извлечение (доверие 39) [54252371]
Трек 2 точное извлечение (доверие 39) [1F06486D]
Трек 3 точное извлечение (доверие 39) [1E28691D]
Трек 4 точное извлечение (доверие 40) [CCC33E71]
Трек 5 точное извлечение (доверие 40) [5E071C7D]
Трек 6 точное извлечение (доверие 39) [1F6F6A7E]
Трек 7 точное извлечение (доверие 39) [FB31D0E2]
Трек 8 точное извлечение (доверие 40) [380B080A]
Трек 9 точное извлечение (доверие 39) [1F6082E5]
Трек 10 точное извлечение (доверие 40) [9CB7FFAA]
Трек 11 точное извлечение (доверие 40) [81485F90]
Трек 12 точное извлечение (доверие 40) [A7E48515]
Трек 13 точное извлечение (доверие 36) [33B81AD4]
Трек 14 точное извлечение (доверие 35) [1EDF9228]
Трек 15 точное извлечение (доверие 36) [D68728DF]
Трек 16 точное извлечение (доверие 37) [00B2C13B]
Трек 17 точное извлечение (доверие 36) [6A689B0F]

Все треки извлечены точно

Конец отчёта

REM GENRE Rock
REM DATE 1987
REM DISCID F1110811
REM COMMENT “ExactAudioCopy v0.99pb5”
PERFORMER “Paul McCartney”
TITLE “All The Best”
FILE “Paul McCartney – All The Best.flac” WAVE
TRACK 01 AUDIO
TITLE “Band On The Run”
PERFORMER “Paul McCartney”
INDEX 00 00:00:00
INDEX 01 00:00:32
TRACK 02 AUDIO
TITLE “Jet”
PERFORMER “Paul McCartney”
INDEX 00 05:12:15
INDEX 01 05:14:27
TRACK 03 AUDIO
TITLE “Ebony And Ivory”
PERFORMER “Paul McCartney”
INDEX 00 09:22:52
INDEX 01 09:24:17
TRACK 04 AUDIO
TITLE “Listen To What The Man Said”
PERFORMER “Paul McCartney”
INDEX 00 13:05:47
INDEX 01 13:07:27
TRACK 05 AUDIO
TITLE “No More Lonely Nights”
PERFORMER “Paul McCartney”
INDEX 00 17:02:25
INDEX 01 17:04:12
TRACK 06 AUDIO
TITLE “Silly Love Songs”
PERFORMER “Paul McCartney”
INDEX 00 21:43:00
INDEX 01 21:45:17
TRACK 07 AUDIO
TITLE “Let ‘Em In”
PERFORMER “Paul McCartney”
INDEX 00 27:39:27
INDEX 01 27:41:12
TRACK 08 AUDIO
TITLE “Say Say Say”
PERFORMER “Paul McCartney”
INDEX 00 32:50:30
INDEX 01 32:52:30
TRACK 09 AUDIO
TITLE “Live And Let Die”
PERFORMER “Paul McCartney”
INDEX 00 36:46:67
INDEX 01 36:48:40
TRACK 10 AUDIO
TITLE “Another Day”
PERFORMER “Paul McCartney”
INDEX 00 40:00:02
INDEX 01 40:02:02
TRACK 11 AUDIO
TITLE “C Moon”
PERFORMER “Paul McCartney”
INDEX 00 43:43:12
INDEX 01 43:45:15
TRACK 12 AUDIO
TITLE “Junior’s Farm”
PERFORMER “Paul McCartney”
INDEX 00 48:18:00
INDEX 01 48:20:15
TRACK 13 AUDIO
TITLE “Uncle Albert / Admiral Halsey”
PERFORMER “Paul McCartney”
INDEX 00 52:41:32
INDEX 01 52:43:15
TRACK 14 AUDIO
TITLE “Coming Up”
PERFORMER “Paul McCartney”
INDEX 00 57:23:62
INDEX 01 57:25:10
TRACK 15 AUDIO
TITLE “Goodnight Tonight”
PERFORMER “Paul McCartney”
INDEX 00 60:55:15
INDEX 01 60:56:07
TRACK 16 AUDIO
TITLE “With A Little Luck”
PERFORMER “Paul McCartney”
INDEX 00 65:14:70
INDEX 01 65:17:02
TRACK 17 AUDIO
TITLE “My Love”
PERFORMER “Paul McCartney”
INDEX 00 68:29:55
INDEX 01 68:31:70


Leave a Reply

Your email address will not be published. Required fields are marked *

Enter the text from the image below
 

This site uses Akismet to reduce spam. Learn how your comment data is processed.