Paul McCartney – All The Best!




No Cover available

Artist: Paul McCartney
Year: 1987
Genre: Rock
Notes: Discogs
Add. Notes:
Watch Songs on: YouTube
Cover incl.: Yes
Encoder: FLAC
Bitrate: ~800 kBit/s (44.1 kHz/16 Bit/s)
Log & Cue incl.: Yes/Yes
Size: 452,1 MB
Password: “slam” (without ” “)


All Downloads/Hosters are compatible

Download 1
KatFile.com
Turbobit.net
Rapidgator.net
FileFactory.com
Download 2
KatFile.com
Turbobit.net
Rapidgator.net
FileFactory.com

Tracklist:

1 Jet 4:06
2 Band On The Run 5:10
3 Coming Up 3:50
4 Ebony And Ivory 3:44
5 Listen To What The Man Said 3:54
6 No More Lonely Nights 4:39
7 Silly Love Songs 5:52
8 Let 'Em In 5:08
9 C Moon 4:33
10 Pipes Of Peace 3:24
11 Live And Let Die 3:10
12 Another Day 3:41
13 Once Upon A Long Ago 4:06
14 Say Say Say 3:54
15 My Love 4:08
16 We All Stand Together 4:23
17 Mull Of Kintyre 4:43

EAC-Log, CUE-Sheed & NFO:

Click to open spoiler
Exact Audio Copy V0.99 prebeta 5 from 4. May 2009

Отчёт EAC об извлечении, выполненном 28. февраля 2011, 13:06

Paul McCartney / All The Best!

Дисковод: Optiarc DVD RW AD-7240S Adapter: 1 ID: 0

Режим чтения : Достоверность
Использование точного потока : Да
Отключение кэша аудио : Да
Использование указателей C2 : Нет

Коррекция смещения при чтении : 48
Способность читать области Lead-in и Lead-out : Нет
Заполнение пропущенных сэмплов тишиной : Да
Удаление блоков с тишиной в начале и конце : Нет
При вычислениях CRC использовались нулевые сэмплы : Да
Интерфейс : Встроенный Win32-интерфейс для Win NT/2000

Выходной формат : Пользовательский кодировщик
Выбранный битрейт : 768 kBit/s
Качество : Высокий
Добавление ID3-тэга : Нет
Утилита сжатия : C:\Program Files\Exact Audio Copy\FLAC\FLAC.EXE
Дополнительные параметры : -6 -V -T “ARTIST=%a” -T “TITLE=%t” -T “ALBUM=%g” -T “DATE=%y” -T “TRACKNUMBER=%n” -T “GENRE=%m” -T “COMMENT=%e” %s -o %d

TOC извлечённого CD

Трек | Старт | Длительность | Начальный сектор | Конечный сектор
———————————————————————
1 | 0:00.33 | 4:09.22 | 33 | 18729
2 | 4:09.55 | 5:13.08 | 18730 | 42212
3 | 9:22.63 | 3:52.15 | 42213 | 59627
4 | 13:15.03 | 3:43.15 | 59628 | 76367
5 | 16:58.18 | 3:56.42 | 76368 | 94109
6 | 20:54.60 | 4:39.18 | 94110 | 115052
7 | 25:34.03 | 5:55.65 | 115053 | 141742
8 | 31:29.68 | 5:11.02 | 141743 | 165069
9 | 36:40.70 | 4:34.00 | 165070 | 185619
10 | 41:14.70 | 3:25.28 | 185620 | 201022
11 | 44:40.23 | 3:13.25 | 201023 | 215522
12 | 47:53.48 | 3:42.17 | 215523 | 232189
13 | 51:35.65 | 4:10.30 | 232190 | 250969
14 | 55:46.20 | 3:55.00 | 250970 | 268594
15 | 59:41.20 | 4:09.10 | 268595 | 287279
16 | 63:50.30 | 4:24.28 | 287280 | 307107
17 | 68:14.58 | 4:43.47 | 307108 | 328379

Характеристики диапазона извлечения и сообщения об ошибках

Выбранный диапазон

Имя файла E:\Paul McCartney\1987 All The Best Holland\Paul McCartney – All The Best!.wav

Пиковый уровень 100.0 %
Качество диапазона 100.0 %
CRC теста 3890F54A
CRC копии 3890F54A
Копирование… OK

Ошибок не произошло

AccurateRip: сводка

Трек 1 точное извлечение (доверие 48) [B57EC783]
Трек 2 точное извлечение (доверие 48) [0F4B8A2F]
Трек 3 точное извлечение (доверие 48) [370DB6A1]
Трек 4 точное извлечение (доверие 48) [C691E074]
Трек 5 точное извлечение (доверие 48) [3257E255]
Трек 6 точное извлечение (доверие 48) [3000E413]
Трек 7 точное извлечение (доверие 47) [9574F3B4]
Трек 8 точное извлечение (доверие 48) [32EF9240]
Трек 9 точное извлечение (доверие 48) [BA2B5CC4]
Трек 10 точное извлечение (доверие 48) [53430C13]
Трек 11 точное извлечение (доверие 47) [67A498F6]
Трек 12 точное извлечение (доверие 47) [FDB42997]
Трек 13 точное извлечение (доверие 47) [A09BF699]
Трек 14 точное извлечение (доверие 48) [B798F386]
Трек 15 точное извлечение (доверие 47) [577DEBB1]
Трек 16 точное извлечение (доверие 47) [CA78EDB8]
Трек 17 точное извлечение (доверие 45) [08E382E5]

Все треки извлечены точно

Конец отчёта

REM GENRE Pop
REM DATE 1987
REM DISCID 00111A11
REM COMMENT “ExactAudioCopy v0.99pb5”
PERFORMER “Paul McCartney”
TITLE “All The Best!”
FILE “Paul McCartney – All The Best!.flac” WAVE
TRACK 01 AUDIO
TITLE “Jet”
PERFORMER “Paul McCartney”
INDEX 00 00:00:00
INDEX 01 00:00:33
TRACK 02 AUDIO
TITLE “Band On The Run”
PERFORMER “Paul McCartney”
INDEX 00 04:08:53
INDEX 01 04:09:55
TRACK 03 AUDIO
TITLE “Coming Up”
PERFORMER “Paul McCartney”
INDEX 00 09:21:13
INDEX 01 09:22:63
TRACK 04 AUDIO
TITLE “Ebony And Ivory”
PERFORMER “Paul McCartney”
INDEX 00 13:13:68
INDEX 01 13:15:03
TRACK 05 AUDIO
TITLE “Listen To What The Man Said”
PERFORMER “Paul McCartney”
INDEX 00 16:56:33
INDEX 01 16:58:18
TRACK 06 AUDIO
TITLE “No More Lonely Nights”
PERFORMER “Paul McCartney”
INDEX 00 20:52:73
INDEX 01 20:54:60
TRACK 07 AUDIO
TITLE “Silly Love Songs”
PERFORMER “Paul McCartney”
INDEX 00 25:32:65
INDEX 01 25:34:03
TRACK 08 AUDIO
TITLE “Let ’em In”
PERFORMER “Paul McCartney”
INDEX 00 31:28:08
INDEX 01 31:29:68
TRACK 09 AUDIO
TITLE “C Moon”
PERFORMER “Paul McCartney”
INDEX 00 36:39:10
INDEX 01 36:40:70
TRACK 10 AUDIO
TITLE “Pipes Of Peace”
PERFORMER “Paul McCartney”
INDEX 00 41:13:56
INDEX 01 41:14:70
TRACK 11 AUDIO
TITLE “Live And Let Die”
PERFORMER “Paul McCartney”
INDEX 00 44:38:55
INDEX 01 44:40:23
TRACK 12 AUDIO
TITLE “Another Day”
PERFORMER “Paul McCartney”
INDEX 00 47:51:60
INDEX 01 47:53:48
TRACK 13 AUDIO
TITLE “Once Upon A Long Ago”
PERFORMER “Paul McCartney”
INDEX 00 51:34:58
INDEX 01 51:35:65
TRACK 14 AUDIO
TITLE “Say Say Say”
PERFORMER “Paul McCartney”
INDEX 00 55:44:68
INDEX 01 55:46:20
TRACK 15 AUDIO
TITLE “My Love”
PERFORMER “Paul McCartney”
INDEX 00 59:40:60
INDEX 01 59:41:20
TRACK 16 AUDIO
TITLE “We All Stand Together”
PERFORMER “Paul McCartney”
INDEX 00 63:49:25
INDEX 01 63:50:30
TRACK 17 AUDIO
TITLE “Mull Of Kintyre”
PERFORMER “Paul McCartney”
INDEX 00 68:13:58
INDEX 01 68:14:58


Leave a Reply

Your email address will not be published. Required fields are marked *

Enter the text from the image below
 

This site uses Akismet to reduce spam. Learn how your comment data is processed.