Paramore – Riot! (Limited Edition)




No Cover available

Artist: Paramore
Year: 2007
Genre: Rock
Notes: Discogs
Add. Notes: Limited Edition
Watch Songs on: YouTube
Cover incl.: Yes
Encoder: FLAC
Bitrate: ~1000 kBit/s (44.1 kHz/16 Bit/s)
Log & Cue incl.: Yes/Yes
Size: 375,4 MB
Password: “slam” (without ” “)


All Downloads/Hosters are compatible

Download 1
KatFile.com
Turbobit.net
Rapidgator.net
FileFactory.com
Download 2
KatFile.com
Turbobit.net
Rapidgator.net
FileFactory.com

Tracklist:

1 For A Pessimist I'm Pretty Optimistic 3:48
2 That's What You Get 3:40
3 Hallelujah 3:23
4 Misery Business 3:31
5 When It Rains 3:35
6 Let The Flames Begin 3:18
7 Miracle 3:29
8 Crushcrushcrush 3:09
9 We Are Broken 3:38
10 Fences 3:18
11 Born For This 4:03

Bonus Tracks
12 Stop This Song (Lovesick Melody) 3:23
13 Rewind (Demo Version) 3:46
14 Emergency (Live Version) 4:23

EAC-Log, CUE-Sheed & NFO:

Click to open spoiler
Exact Audio Copy V0.99 prebeta 5 from 4. May 2009

EAC extraction logfile from 14. April 2010, 20:25

Paramore / Riot!

Used drive : LITE-ON LTR-48246S Adapter: 1 ID: 1

Read mode : Secure
Utilize accurate stream : Yes
Defeat audio cache : Yes
Make use of C2 pointers : No

Read offset correction : 6
Overread into Lead-In and Lead-Out : No
Fill up missing offset samples with silence : Yes
Delete leading and trailing silent blocks : No
Null samples used in CRC calculations : Yes
Used interface : Native Win32 interface for Win NT & 2000
Gap handling : Appended to previous track

Used output format : User Defined Encoder
Selected bitrate : 768 kBit/s
Quality : High
Add ID3 tag : No
Command line compressor : C:\Program Files\EAC\FLAC\FLAC.EXE
Additional command line options : -V -6 -T “artist=%a” -T “title=%t” -T “album=%g” -T “date=%y” -T “tracknumber=%n” -T “genre=%m” %s

TOC of the extracted CD

Track | Start | Length | Start sector | End sector
———————————————————
1 | 0:00.00 | 3:48.22 | 0 | 17121
2 | 3:48.22 | 3:40.36 | 17122 | 33657
3 | 7:28.58 | 3:23.48 | 33658 | 48930
4 | 10:52.31 | 3:31.39 | 48931 | 64794
5 | 14:23.70 | 3:35.07 | 64795 | 80926
6 | 17:59.02 | 3:18.17 | 80927 | 95793
7 | 21:17.19 | 3:29.56 | 95794 | 111524
8 | 24:47.00 | 3:09.28 | 111525 | 125727
9 | 27:56.28 | 3:38.25 | 125728 | 142102
10 | 31:34.53 | 3:18.73 | 142103 | 157025
11 | 34:53.51 | 4:03.47 | 157026 | 175297
12 | 38:57.23 | 3:23.45 | 175298 | 190567
13 | 42:20.68 | 3:46.71 | 190568 | 207588
14 | 46:07.64 | 4:23.38 | 207589 | 227351

Track 1

Filename D:\temp\Paramore – Riot!\01 – For A Pessimist, I’m Pretty Optimistic.wav

Pre-gap length 0:00:02.00

Peak level 100.0 %
Track quality 100.0 %
Test CRC 6EEF9DCF
Copy CRC 6EEF9DCF
Accurately ripped (confidence 3) [3417767F]
Copy OK

Track 2

Filename D:\temp\Paramore – Riot!\02 – That’s What You Get.wav

Peak level 100.0 %
Track quality 99.9 %
Test CRC 0725865C
Copy CRC 0725865C
Accurately ripped (confidence 3) [02ADC2B2]
Copy OK

Track 3

Filename D:\temp\Paramore – Riot!\03 – Hallelujah.wav

Peak level 100.0 %
Track quality 100.0 %
Test CRC 8C8E9C83
Copy CRC 8C8E9C83
Track not present in AccurateRip database
Copy OK

Track 4

Filename D:\temp\Paramore – Riot!\04 – Misery Business.wav

Peak level 100.0 %
Track quality 99.9 %
Test CRC 9B26B14D
Copy CRC 9B26B14D
Accurately ripped (confidence 3) [D0F14763]
Copy OK

Track 5

Filename D:\temp\Paramore – Riot!\05 – When It Rains.wav

Peak level 100.0 %
Track quality 100.0 %
Test CRC 0E621CC5
Copy CRC 0E621CC5
Accurately ripped (confidence 3) [E4681358]
Copy OK

Track 6

Filename D:\temp\Paramore – Riot!\06 – Let The Flames Begin.wav

Peak level 100.0 %
Track quality 99.9 %
Test CRC FABDA17C
Copy CRC FABDA17C
Accurately ripped (confidence 3) [98C8F4C7]
Copy OK

Track 7

Filename D:\temp\Paramore – Riot!\07 – Miracle.wav

Peak level 100.0 %
Track quality 100.0 %
Test CRC 5B54C9A7
Copy CRC 5B54C9A7
Accurately ripped (confidence 3) [06EBC64F]
Copy OK

Track 8

Filename D:\temp\Paramore – Riot!\08 – Crushcrushcrush.wav

Peak level 100.0 %
Track quality 100.0 %
Test CRC C17E6468
Copy CRC C17E6468
Track not present in AccurateRip database
Copy OK

Track 9

Filename D:\temp\Paramore – Riot!\09 – We Are Broken.wav

Peak level 96.6 %
Track quality 100.0 %
Test CRC 29DAB731
Copy CRC 29DAB731
Track not present in AccurateRip database
Copy OK

Track 10

Filename D:\temp\Paramore – Riot!\10 – Fences.wav

Peak level 100.0 %
Track quality 100.0 %
Test CRC 58D0B694
Copy CRC 58D0B694
Track not present in AccurateRip database
Copy OK

Track 11

Filename D:\temp\Paramore – Riot!\11 – Born For This.wav

Peak level 100.0 %
Track quality 100.0 %
Test CRC 781E1263
Copy CRC 781E1263
Accurately ripped (confidence 3) [36D258D7]
Copy OK

Track 12

Filename D:\temp\Paramore – Riot!\12 – Stop This Song (Lovesick Melody).wav

Pre-gap length 0:00:05.00

Peak level 100.0 %
Track quality 100.0 %
Test CRC BB1F862C
Copy CRC BB1F862C
Accurately ripped (confidence 3) [1C53C3A8]
Copy OK

Track 13

Filename D:\temp\Paramore – Riot!\13 – Rewind (Demo Version).wav

Peak level 96.6 %
Track quality 100.0 %
Test CRC A84FB7D9
Copy CRC A84FB7D9
Accurately ripped (confidence 2) [E7A2CCB9]
Copy OK

Track 14

Filename D:\temp\Paramore – Riot!\14 – Emergency (Live Version).wav

Peak level 96.6 %
Track quality 99.9 %
Test CRC ABA66F73
Copy CRC ABA66F73
Accurately ripped (confidence 2) [40FCCAAB]
Copy OK

10 track(s) accurately ripped
4 track(s) not present in the AccurateRip database

Some tracks could not be verified as accurate

No errors occurred

End of status report

REM GENRE Pop
REM DATE 2007
REM DISCID D90BD70E
REM COMMENT “ExactAudioCopy v0.99pb5”
PERFORMER “Paramore”
TITLE “Riot!”
FILE “01 – For A Pessimist, I’m Pretty Optimistic.wav” WAVE
TRACK 01 AUDIO
TITLE “For A Pessimist, I’m Pretty Optimistic”
PERFORMER “Paramore”
INDEX 01 00:00:00
FILE “02 – That’s What You Get.wav” WAVE
TRACK 02 AUDIO
TITLE “That’s What You Get”
PERFORMER “Paramore”
INDEX 01 00:00:00
FILE “03 – Hallelujah.wav” WAVE
TRACK 03 AUDIO
TITLE “Hallelujah”
PERFORMER “Paramore”
INDEX 01 00:00:00
FILE “04 – Misery Business.wav” WAVE
TRACK 04 AUDIO
TITLE “Misery Business”
PERFORMER “Paramore”
INDEX 01 00:00:00
FILE “05 – When It Rains.wav” WAVE
TRACK 05 AUDIO
TITLE “When It Rains”
PERFORMER “Paramore”
INDEX 01 00:00:00
FILE “06 – Let The Flames Begin.wav” WAVE
TRACK 06 AUDIO
TITLE “Let The Flames Begin”
PERFORMER “Paramore”
INDEX 01 00:00:00
FILE “07 – Miracle.wav” WAVE
TRACK 07 AUDIO
TITLE “Miracle”
PERFORMER “Paramore”
INDEX 01 00:00:00
FILE “08 – Crushcrushcrush.wav” WAVE
TRACK 08 AUDIO
TITLE “Crushcrushcrush”
PERFORMER “Paramore”
INDEX 01 00:00:00
FILE “09 – We Are Broken.wav” WAVE
TRACK 09 AUDIO
TITLE “We Are Broken”
PERFORMER “Paramore”
INDEX 01 00:00:00
FILE “10 – Fences.wav” WAVE
TRACK 10 AUDIO
TITLE “Fences”
PERFORMER “Paramore”
INDEX 01 00:00:00
FILE “11 – Born For This.wav” WAVE
TRACK 11 AUDIO
TITLE “Born For This”
PERFORMER “Paramore”
INDEX 01 00:00:00
TRACK 12 AUDIO
TITLE “Stop This Song (Lovesick Melody)”
PERFORMER “Paramore”
INDEX 00 03:58:47
FILE “12 – Stop This Song (Lovesick Melody).wav” WAVE
INDEX 01 00:00:00
FILE “13 – Rewind (Demo Version).wav” WAVE
TRACK 13 AUDIO
TITLE “Rewind (Demo Version)”
PERFORMER “Paramore”
INDEX 01 00:00:00
FILE “14 – Emergency (Live Version).wav” WAVE
TRACK 14 AUDIO
TITLE “Emergency (Live Version)”
PERFORMER “Paramore”
INDEX 01 00:00:00


0

Publication author

offline 8 hours

Chaos

3
Comments: 4Publics: 3424Registration: 02-02-2019
Spread the Download

Leave a Reply

Your email address will not be published. Required fields are marked *

Enter the text from the image below
 

This site uses Akismet to reduce spam. Learn how your comment data is processed.