Paramore – Live In The UK 2008 (Limited Edition)




No Cover available

Artist: Paramore
Year: 2008
Genre: Rock
Notes: Discogs
Add. Notes: Limited Edition
Watch Songs on: YouTube
Cover incl.: Yes
Encoder: FLAC
Bitrate: ~900 kBit/s (44.1 kHz/16 Bit/s)
Log & Cue incl.: Yes/Yes
Size: 386,3 MB
Password: “slam” (without ” “)


All Downloads/Hosters are compatible

Download 1
KatFile.com
Turbobit.net
Rapidgator.net
FileFactory.com
Download 2
KatFile.com
Turbobit.net
Rapidgator.net
FileFactory.com

Tracklist:

1-1 For A Pessimist, I'm Pretty Optimistic 
1-2 Born For This 
1-3 Emergency 
1-4 Never Let This Go 
1-5 Fences 
1-6 Let The Flames Begin 
1-7 When It Rains 

2-1 Crushcrushcrush 
2-2 Pressure 
2-3 Here We Go Again 
2-4 That's What You Get 
2-5 My Heart 
2-6 Decoy 
2-7 Misery Business

EAC-Log, CUE-Sheed & NFO:

Click to open spoiler
Exact Audio Copy V0.99 prebeta 3 from 28. July 2007

EAC extraction logfile from 5. February 2008, 1:30

Paramore / Live in the UK 2008 (Manchester Apollo 30th Jan) [CD1]

Used drive : HL-DT-STDVDRAM GSA-4084N Adapter: 0 ID: 0

Read mode : Secure
Utilize accurate stream : Yes
Defeat audio cache : Yes
Make use of C2 pointers : No

Read offset correction : 667
Overread into Lead-In and Lead-Out : No
Fill up missing offset samples with silence : Yes
Delete leading and trailing silent blocks : No
Null samples used in CRC calculations : Yes
Used interface : Native Win32 interface for Win NT & 2000
Gap handling : Appended to previous track

Used output format : Internal WAV Routines
Sample format : 44.100 Hz; 16 Bit; Stereo

TOC of the extracted CD

Track | Start | Length | Start sector | End sector
———————————————————
1 | 0:00.00 | 4:32.49 | 0 | 20448
2 | 4:32.49 | 4:12.32 | 20449 | 39380
3 | 8:45.06 | 4:51.52 | 39381 | 61257
4 | 13:36.58 | 4:47.15 | 61258 | 82797
5 | 18:23.73 | 3:46.73 | 82798 | 99820
6 | 22:10.71 | 6:03.14 | 99821 | 127059
7 | 28:14.10 | 3:37.19 | 127060 | 143353

Track 1

Filename C:\CD Rips\Paramore – Live in the UK 2008 (Manchester Apollo 30th Jan) [CD1] (2008)\01. Introduction , For a Pessimist, I’m Pretty Optimistic.wav

Pre-gap length 0:00:02.00

Peak level 98.7 %
Track quality 100.0 %
Test CRC 37A2A2E5
Copy CRC 37A2A2E5
Track not present in AccurateRip database
Copy OK

Track 2

Filename C:\CD Rips\Paramore – Live in the UK 2008 (Manchester Apollo 30th Jan) [CD1] (2008)\02. Born for This.wav

Peak level 99.8 %
Track quality 100.0 %
Test CRC 569CF624
Copy CRC 569CF624
Track not present in AccurateRip database
Copy OK

Track 3

Filename C:\CD Rips\Paramore – Live in the UK 2008 (Manchester Apollo 30th Jan) [CD1] (2008)\03. Emergency.wav

Peak level 97.8 %
Track quality 100.0 %
Test CRC DA2A84B3
Copy CRC DA2A84B3
Track not present in AccurateRip database
Copy OK

Track 4

Filename C:\CD Rips\Paramore – Live in the UK 2008 (Manchester Apollo 30th Jan) [CD1] (2008)\04. Never Let This Go.wav

Peak level 99.5 %
Track quality 99.9 %
Test CRC 0D06E7EC
Copy CRC 0D06E7EC
Track not present in AccurateRip database
Copy OK

Track 5

Filename C:\CD Rips\Paramore – Live in the UK 2008 (Manchester Apollo 30th Jan) [CD1] (2008)\05. Fences.wav

Peak level 100.0 %
Track quality 100.0 %
Test CRC 3207654D
Copy CRC 3207654D
Track not present in AccurateRip database
Copy OK

Track 6

Filename C:\CD Rips\Paramore – Live in the UK 2008 (Manchester Apollo 30th Jan) [CD1] (2008)\06. Let the Flames Begin , Interlude.wav

Peak level 97.0 %
Track quality 100.0 %
Test CRC B8999476
Copy CRC B8999476
Track not present in AccurateRip database
Copy OK

Track 7

Filename C:\CD Rips\Paramore – Live in the UK 2008 (Manchester Apollo 30th Jan) [CD1] (2008)\07. When it Rains.wav

Peak level 97.2 %
Track quality 100.0 %
Test CRC 770F86BE
Copy CRC 770F86BE
Track not present in AccurateRip database
Copy OK

None of the tracks are present in the AccurateRip database

No errors occurred

End of status report

Exact Audio Copy V0.99 prebeta 3 from 28. July 2007

EAC extraction logfile from 5. February 2008, 10:30

Paramore / Live in the UK 2008 (Manchester Apollo 30th Jan) [CD2]

Used drive : HL-DT-STDVDRAM GSA-4084N Adapter: 0 ID: 0

Read mode : Secure
Utilize accurate stream : Yes
Defeat audio cache : Yes
Make use of C2 pointers : No

Read offset correction : 667
Overread into Lead-In and Lead-Out : No
Fill up missing offset samples with silence : Yes
Delete leading and trailing silent blocks : No
Null samples used in CRC calculations : Yes
Used interface : Native Win32 interface for Win NT & 2000
Gap handling : Appended to previous track

Used output format : Internal WAV Routines
Sample format : 44.100 Hz; 16 Bit; Stereo

TOC of the extracted CD

Track | Start | Length | Start sector | End sector
———————————————————
1 | 0:00.00 | 3:33.65 | 0 | 16039
2 | 3:33.65 | 4:47.23 | 16040 | 37587
3 | 8:21.13 | 3:17.21 | 37588 | 52383
4 | 11:38.34 | 5:03.53 | 52384 | 75161
5 | 16:42.12 | 6:34.34 | 75162 | 104745
6 | 23:16.46 | 4:29.10 | 104746 | 124930
7 | 27:45.56 | 3:46.06 | 124931 | 141886

Track 1

Filename C:\CD Rips\Paramore – Live in the UK 2008 (Manchester Apollo 30th Jan) [CD2] (2008)\01. crushcrushcrush.wav

Pre-gap length 0:00:02.00

Peak level 97.7 %
Track quality 99.9 %
Test CRC 23104AA2
Copy CRC 23104AA2
Track not present in AccurateRip database
Copy OK

Track 2

Filename C:\CD Rips\Paramore – Live in the UK 2008 (Manchester Apollo 30th Jan) [CD2] (2008)\02. Pressure.wav

Peak level 98.9 %
Track quality 100.0 %
Test CRC D48F34F4
Copy CRC D48F34F4
Track not present in AccurateRip database
Copy OK

Track 3

Filename C:\CD Rips\Paramore – Live in the UK 2008 (Manchester Apollo 30th Jan) [CD2] (2008)\03. Here We Go Again.wav

Peak level 99.1 %
Track quality 100.0 %
Test CRC 0EC0C199
Copy CRC 0EC0C199
Track not present in AccurateRip database
Copy OK

Track 4

Filename C:\CD Rips\Paramore – Live in the UK 2008 (Manchester Apollo 30th Jan) [CD2] (2008)\04. That’s What You Get.wav

Peak level 96.3 %
Track quality 100.0 %
Test CRC E9F3D8BB
Copy CRC E9F3D8BB
Track not present in AccurateRip database
Copy OK

Track 5

Filename C:\CD Rips\Paramore – Live in the UK 2008 (Manchester Apollo 30th Jan) [CD2] (2008)\05. My Heart.wav

Peak level 97.0 %
Track quality 100.0 %
Test CRC F4B28300
Copy CRC F4B28300
Track not present in AccurateRip database
Copy OK

Track 6

Filename C:\CD Rips\Paramore – Live in the UK 2008 (Manchester Apollo 30th Jan) [CD2] (2008)\06. Decoy.wav

Peak level 97.3 %
Track quality 100.0 %
Test CRC C10C2424
Copy CRC C10C2424
Track not present in AccurateRip database
Copy OK

Track 7

Filename C:\CD Rips\Paramore – Live in the UK 2008 (Manchester Apollo 30th Jan) [CD2] (2008)\07. Misery Business.wav

Peak level 98.2 %
Track quality 100.0 %
Test CRC DD00045E
Copy CRC DD00045E
Track not present in AccurateRip database
Copy OK

None of the tracks are present in the AccurateRip database

No errors occurred

End of status report

REM GENRE Rock
REM DATE 2008
REM DISCID 54077707
REM COMMENT “ExactAudioCopy v0.99pb3”
PERFORMER “Paramore”
TITLE “Live in the UK 2008 (Manchester Apollo 30th Jan) [CD1]”
FILE “Paramore – Live in the UK 2008 (Manchester Apollo 30th Jan) [CD1] (2008)\01. Introduction , For a Pessimist, I’m Pretty Optimistic.wav” WAVE
TRACK 01 AUDIO
TITLE “Introduction / For a Pessimist, I’m Pretty Optimistic”
PERFORMER “Paramore”
INDEX 01 00:00:00
FILE “Paramore – Live in the UK 2008 (Manchester Apollo 30th Jan) [CD1] (2008)\02. Born for This.wav” WAVE
TRACK 02 AUDIO
TITLE “Born for This”
PERFORMER “Paramore”
INDEX 01 00:00:00
FILE “Paramore – Live in the UK 2008 (Manchester Apollo 30th Jan) [CD1] (2008)\03. Emergency.wav” WAVE
TRACK 03 AUDIO
TITLE “Emergency”
PERFORMER “Paramore”
INDEX 01 00:00:00
FILE “Paramore – Live in the UK 2008 (Manchester Apollo 30th Jan) [CD1] (2008)\04. Never Let This Go.wav” WAVE
TRACK 04 AUDIO
TITLE “Never Let This Go”
PERFORMER “Paramore”
INDEX 01 00:00:00
FILE “Paramore – Live in the UK 2008 (Manchester Apollo 30th Jan) [CD1] (2008)\05. Fences.wav” WAVE
TRACK 05 AUDIO
TITLE “Fences”
PERFORMER “Paramore”
INDEX 01 00:00:00
FILE “Paramore – Live in the UK 2008 (Manchester Apollo 30th Jan) [CD1] (2008)\06. Let the Flames Begin , Interlude.wav” WAVE
TRACK 06 AUDIO
TITLE “Let the Flames Begin / Interlude”
PERFORMER “Paramore”
INDEX 01 00:00:00
FILE “Paramore – Live in the UK 2008 (Manchester Apollo 30th Jan) [CD1] (2008)\07. When it Rains.wav” WAVE
TRACK 07 AUDIO
TITLE “When it Rains”
PERFORMER “Paramore”
INDEX 01 00:00:00

REM GENRE Rock
REM DATE 2008
REM DISCID 47076307
REM COMMENT “ExactAudioCopy v0.99pb3”
PERFORMER “Paramore”
TITLE “Live in the UK 2008 (Manchester Apollo 30th Jan) [CD2]”
FILE “Paramore – Live in the UK 2008 (Manchester Apollo 30th Jan) [CD2] (2008)\01. crushcrushcrush.wav” WAVE
TRACK 01 AUDIO
TITLE “crushcrushcrush”
PERFORMER “Paramore”
INDEX 01 00:00:00
FILE “Paramore – Live in the UK 2008 (Manchester Apollo 30th Jan) [CD2] (2008)\02. Pressure.wav” WAVE
TRACK 02 AUDIO
TITLE “Pressure”
PERFORMER “Paramore”
INDEX 01 00:00:00
FILE “Paramore – Live in the UK 2008 (Manchester Apollo 30th Jan) [CD2] (2008)\03. Here We Go Again.wav” WAVE
TRACK 03 AUDIO
TITLE “Here We Go Again”
PERFORMER “Paramore”
INDEX 01 00:00:00
FILE “Paramore – Live in the UK 2008 (Manchester Apollo 30th Jan) [CD2] (2008)\04. That’s What You Get.wav” WAVE
TRACK 04 AUDIO
TITLE “That’s What You Get”
PERFORMER “Paramore”
INDEX 01 00:00:00
FILE “Paramore – Live in the UK 2008 (Manchester Apollo 30th Jan) [CD2] (2008)\05. My Heart.wav” WAVE
TRACK 05 AUDIO
TITLE “My Heart”
PERFORMER “Paramore”
INDEX 01 00:00:00
FILE “Paramore – Live in the UK 2008 (Manchester Apollo 30th Jan) [CD2] (2008)\06. Decoy.wav” WAVE
TRACK 06 AUDIO
TITLE “Decoy”
PERFORMER “Paramore”
INDEX 01 00:00:00
FILE “Paramore – Live in the UK 2008 (Manchester Apollo 30th Jan) [CD2] (2008)\07. Misery Business.wav” WAVE
TRACK 07 AUDIO
TITLE “Misery Business”
PERFORMER “Paramore”
INDEX 01 00:00:00


0

Publication author

offline 8 hours

Chaos

3
Comments: 4Publics: 3424Registration: 02-02-2019
Spread the Download

Leave a Reply

Your email address will not be published. Required fields are marked *

Enter the text from the image below
 

This site uses Akismet to reduce spam. Learn how your comment data is processed.