Paramore – Brand New Eyes (Remastered Deluxe Edition)




No Cover available


Artist: Paramore
Year: 2009
Genre: Rock
Notes: Discogs
Add. Notes: Remastered Deluxe Edition
Watch Songs on: YouTube
Cover incl.: Yes
Encoder: FLAC
Bitrate: ~1000 kBit/s (44.1 kHz/16 Bit/s)
Log & Cue incl.: Yes/Yes
Size: 337,7 MB
Password: “slam” (without ” “)


All Downloads/Hosters are compatible

Download 1
KatFile.com
Turbobit.net
Rapidgator.net
FileFactory.com
Download 2
KatFile.com
Turbobit.net
Rapidgator.net
FileFactory.com

Tracklist:

1 Careful 3:50
2 Ignorance 3:38
3 Playing God 3:02
4 Brick By Boring Brick 4:13
5 Turn It Off 4:19
6 The Only Exception 4:27
7 Feeling Sorry 3:05
8 Looking Up 3:29
9 Where The Lines Overlap 3:18
10 Misguided Ghosts 3:01
11 All I Wanted 3:45

Bonus Tracks:
12 Ignorance (Acoustic Version) 3:39
13 Brick By Boring Brick (Acoustic Version) 4:19
14 Turn It Off (Acoustic Version) 3:52

EAC-Log, CUE-Sheed & NFO:

Click to open spoiler
Exact Audio Copy V0.99 prebeta 3 from 28. July 2007

EAC extraction logfile from 25. September 2009, 23:54

Paramore / brand new eyes

Used drive : LITE-ON LTR-32123S Adapter: 3 ID: 0

Read mode : Secure
Utilize accurate stream : Yes
Defeat audio cache : Yes
Make use of C2 pointers : No

Read offset correction : 12
Overread into Lead-In and Lead-Out : No
Fill up missing offset samples with silence : Yes
Delete leading and trailing silent blocks : No
Null samples used in CRC calculations : Yes
Used interface : Native Win32 interface for Win NT & 2000
Gap handling : Appended to previous track

Used output format : User Defined Encoder
Selected bitrate : 768 kBit/s
Quality : High
Add ID3 tag : No
Command line compressor : E:\Program Files\FLAC\flac.exe
Additional command line options : -V -8 -T “artist=%a” -T “title=%t” -T “album=%g” -T “date=%y” -T “tracknumber=%n” -T “genre=%m” %s -T “track=%n” -T “year=%y”

TOC of the extracted CD

Track | Start | Length | Start sector | End sector
———————————————————
1 | 0:00.00 | 3:50.33 | 0 | 17282
2 | 3:50.33 | 3:38.47 | 17283 | 33679
3 | 7:29.05 | 3:02.60 | 33680 | 47389
4 | 10:31.65 | 4:13.71 | 47390 | 66435
5 | 14:45.61 | 4:19.54 | 66436 | 85914
6 | 19:05.40 | 4:27.49 | 85915 | 105988
7 | 23:33.14 | 3:05.11 | 105989 | 119874
8 | 26:38.25 | 3:29.32 | 119875 | 135581
9 | 30:07.57 | 3:18.56 | 135582 | 150487
10 | 33:26.38 | 3:01.38 | 150488 | 164100
11 | 36:28.01 | 3:49.21 | 164101 | 181296
12 | 40:17.22 | 3:40.63 | 181297 | 197859
13 | 43:58.10 | 3:12.47 | 197860 | 212306

Track 1

Filename \\Eugeneslaptop\CDs\Paramore – brand new eyes\01 Careful.wav

Pre-gap length 0:00:02.00

Peak level 100.0 %
Track quality 99.9 %
Test CRC 2C5DD600
Copy CRC 2C5DD600
Copy OK

Track 2

Filename \\Eugeneslaptop\CDs\Paramore – brand new eyes\02 Ignorance.wav

Peak level 100.0 %
Track quality 100.0 %
Test CRC 5A015967
Copy CRC 5A015967
Copy OK

Track 3

Filename \\Eugeneslaptop\CDs\Paramore – brand new eyes\03 Playing God.wav

Peak level 100.0 %
Track quality 100.0 %
Test CRC 0802919D
Copy CRC 0802919D
Copy OK

Track 4

Filename \\Eugeneslaptop\CDs\Paramore – brand new eyes\04 Brick By Boring Brick.wav

Peak level 100.0 %
Track quality 100.0 %
Test CRC 15C4ECDB
Copy CRC 15C4ECDB
Copy OK

Track 5

Filename \\Eugeneslaptop\CDs\Paramore – brand new eyes\05 Turn It Off.wav

Peak level 100.0 %
Track quality 100.0 %
Test CRC 1C2AFE19
Copy CRC 1C2AFE19
Copy OK

Track 6

Filename \\Eugeneslaptop\CDs\Paramore – brand new eyes\06 The Only Exception.wav

Peak level 100.0 %
Track quality 99.9 %
Test CRC A5BF90A4
Copy CRC A5BF90A4
Copy OK

Track 7

Filename \\Eugeneslaptop\CDs\Paramore – brand new eyes\07 Feeling Sorry.wav

Peak level 100.0 %
Track quality 100.0 %
Test CRC 281C57B8
Copy CRC 281C57B8
Copy OK

Track 8

Filename \\Eugeneslaptop\CDs\Paramore – brand new eyes\08 Looking Up.wav

Peak level 100.0 %
Track quality 100.0 %
Test CRC 727293A7
Copy CRC 727293A7
Copy OK

Track 9

Filename \\Eugeneslaptop\CDs\Paramore – brand new eyes\09 Where The Lines Overlap.wav

Peak level 100.0 %
Track quality 100.0 %
Test CRC DB9E5E05
Copy CRC DB9E5E05
Copy OK

Track 10

Filename \\Eugeneslaptop\CDs\Paramore – brand new eyes\10 Misguided Ghosts.wav

Peak level 100.0 %
Track quality 100.0 %
Test CRC 4DF255E0
Copy CRC 4DF255E0
Copy OK

Track 11

Filename \\Eugeneslaptop\CDs\Paramore – brand new eyes\11 All I Wanted.wav

Peak level 100.0 %
Track quality 100.0 %
Test CRC 0F86CB01
Copy CRC 0F86CB01
Copy OK

Track 12

Filename \\Eugeneslaptop\CDs\Paramore – brand new eyes\12 Ignorance [Acoustic].wav

Pre-gap length 0:00:03.49

Peak level 100.0 %
Track quality 99.9 %
Test CRC D1DEB1D8
Copy CRC D1DEB1D8
Copy OK

Track 13

Filename \\Eugeneslaptop\CDs\Paramore – brand new eyes\13 Where The Lines Overlap [Acoustic].wav

Peak level 100.0 %
Track quality 99.9 %
Test CRC 3B4AD870
Copy CRC 3B4AD870
Copy OK

No errors occurred

End of status report

REM GENRE Alternative
REM DATE 2009
REM DISCID 990B0E0D
REM COMMENT “ExactAudioCopy v0.99pb3”
PERFORMER “Paramore”
TITLE “brand new eyes”
FILE “01 Careful.wav” WAVE
TRACK 01 AUDIO
TITLE “Careful”
PERFORMER “Paramore”
INDEX 01 00:00:00
FILE “02 Ignorance.wav” WAVE
TRACK 02 AUDIO
TITLE “Ignorance”
PERFORMER “Paramore”
INDEX 01 00:00:00
FILE “03 Playing God.wav” WAVE
TRACK 03 AUDIO
TITLE “Playing God”
PERFORMER “Paramore”
INDEX 01 00:00:00
FILE “04 Brick By Boring Brick.wav” WAVE
TRACK 04 AUDIO
TITLE “Brick By Boring Brick”
PERFORMER “Paramore”
INDEX 01 00:00:00
FILE “05 Turn It Off.wav” WAVE
TRACK 05 AUDIO
TITLE “Turn It Off”
PERFORMER “Paramore”
INDEX 01 00:00:00
FILE “06 The Only Exception.wav” WAVE
TRACK 06 AUDIO
TITLE “The Only Exception”
PERFORMER “Paramore”
INDEX 01 00:00:00
FILE “07 Feeling Sorry.wav” WAVE
TRACK 07 AUDIO
TITLE “Feeling Sorry”
PERFORMER “Paramore”
INDEX 01 00:00:00
FILE “08 Looking Up.wav” WAVE
TRACK 08 AUDIO
TITLE “Looking Up”
PERFORMER “Paramore”
INDEX 01 00:00:00
FILE “09 Where The Lines Overlap.wav” WAVE
TRACK 09 AUDIO
TITLE “Where The Lines Overlap”
PERFORMER “Paramore”
INDEX 01 00:00:00
FILE “10 Misguided Ghosts.wav” WAVE
TRACK 10 AUDIO
TITLE “Misguided Ghosts”
PERFORMER “Paramore”
INDEX 01 00:00:00
FILE “11 All I Wanted.wav” WAVE
TRACK 11 AUDIO
TITLE “All I Wanted”
PERFORMER “Paramore”
INDEX 01 00:00:00
TRACK 12 AUDIO
TITLE “Ignorance [Acoustic]”
PERFORMER “Paramore”
INDEX 00 03:45:59
FILE “12 Ignorance [Acoustic].wav” WAVE
INDEX 01 00:00:00
FILE “13 Where The Lines Overlap [Acoustic].wav” WAVE
TRACK 13 AUDIO
TITLE “Where The Lines Overlap [Acoustic]”
PERFORMER “Paramore”
INDEX 01 00:00:00


Leave a Reply

Your email address will not be published. Required fields are marked *

Enter the text from the image below
 

This site uses Akismet to reduce spam. Learn how your comment data is processed.