Paradise Lost – Tragic Illusion 25




No Cover available

Artist: Paradise Lost
Year: 2013
Genre: Metal
Notes: Discogs
Add. Notes:
Watch Songs on: YouTube
Cover incl.: Yes
Encoder: FLAC
Bitrate: ~900 kBit/s (44.1 kHz/16 Bit/s)
Log & Cue incl.: Yes/Yes
Size: 666,4 MB
Password: “slam” (without ” “)


All Downloads/Hosters are compatible

Download 1
KatFile.com
Turbobit.net
Rapidgator.net
FileFactory.com
Download 2
KatFile.com
Turbobit.net
Rapidgator.net
FileFactory.com

Tracklist:

1 Loneliness Remains 4:56
2 Never Take Me Alive (Spear Of Destiny Cover) 4:42
3 Ending Through Changes 4:07
4 The Last Fallen Saviour 3:39
5 Last Regret (Lost In Prague Orchestra Mix) 4:19
6 Faith Divides Us - Death Unites Us (Orchestra Mix) 4:16
7 Cardinal Zero 4:26
8 Back On Disaster 4:12
9 Sons Of Perdition 4:11
10 Godless 2:15
11 Missing (Everything But The Girl Cover) 4:27
12 Silent In Heart 3:21
13 Gothic 2013 5:13
14 Our Saviour 2013 5:28

EAC-Log, CUE-Sheed & NFO:

Click to open spoiler
Exact Audio Copy V1.0 beta 3 from 29. August 2011

Отчёт EAC об извлечении, выполненном 29. октября 2013, 0:36

Paradise Lost / Tragic Illusion 25 (The Rarities)

Дисковод: TSSTcorpCD/DVDW TS-L632D Adapter: 1 ID: 0

Режим чтения : Достоверность
Использование точного потока : Да
Отключение кэша аудио : Да
Использование указателей C2 : Нет

Коррекция смещения при чтении : 6
Способность читать области Lead-in и Lead-out : Нет
Заполнение пропущенных сэмплов тишиной : Да
Удаление блоков с тишиной в начале и конце : Нет
При вычислениях CRC использовались нулевые сэмплы : Да
Интерфейс : Установленный внешний ASPI-интерфейс

Выходной формат : Внутренние WAV-операции
Формат сэмплов : 44.100 Гц; 16 бит; стерео

TOC извлечённого CD

Трек | Старт | Длительность | Начальный сектор | Конечный сектор
———————————————————————
1 | 0:00.00 | 4:56.15 | 0 | 22214
2 | 4:56.15 | 4:42.26 | 22215 | 43390
3 | 9:38.41 | 4:07.19 | 43391 | 61934
4 | 13:45.60 | 3:38.49 | 61935 | 78333
5 | 17:24.34 | 4:19.07 | 78334 | 97765
6 | 21:43.41 | 4:16.03 | 97766 | 116968
7 | 25:59.44 | 4:25.38 | 116969 | 136881
8 | 30:25.07 | 4:11.73 | 136882 | 155779
9 | 34:37.05 | 4:10.47 | 155780 | 174576
10 | 38:47.52 | 2:14.53 | 174577 | 184679
11 | 41:02.30 | 4:27.18 | 184680 | 204722
12 | 45:29.48 | 3:21.18 | 204723 | 219815
13 | 48:50.66 | 5:12.42 | 219816 | 243257
14 | 54:03.33 | 5:27.39 | 243258 | 267821

Характеристики диапазона извлечения и сообщения об ошибках

Выбранный диапазон

Имя файла D:\Paradise Lost – Tragic Illusion 25 (The Rarities).wav

Пиковый уровень 98.8 %
Скорость извлечения 3.7 X
Качество диапазона 100.0 %
CRC теста E1C41E58
CRC копии E1C41E58
Копирование… OK

Ошибок не произошло

AccurateRip: сводка

Трек 1 отсутствует в базе данных
Трек 2 отсутствует в базе данных
Трек 3 отсутствует в базе данных
Трек 4 отсутствует в базе данных
Трек 5 отсутствует в базе данных
Трек 6 отсутствует в базе данных
Трек 7 отсутствует в базе данных
Трек 8 отсутствует в базе данных
Трек 9 отсутствует в базе данных
Трек 10 отсутствует в базе данных
Трек 11 отсутствует в базе данных
Трек 12 отсутствует в базе данных
Трек 13 отсутствует в базе данных
Трек 14 отсутствует в базе данных

Ни одного трека нет в базе AccurateRip

Конец отчёта

REM GENRE “Gothic Metal”
REM DATE 2013
REM DISCID C30DF20E
REM COMMENT “ExactAudioCopy v1.0b3”
PERFORMER “Paradise Lost”
TITLE “Tragic Illusion 25 (The Rarities)”
FILE “Paradise Lost – Tragic Illusion 25 (The Rarities).flac” WAVE
TRACK 01 AUDIO
TITLE “Loneliness Remains”
PERFORMER “Paradise Lost”
INDEX 01 00:00:00
TRACK 02 AUDIO
TITLE “Never Take Me Alive *”
PERFORMER “Paradise Lost”
INDEX 00 04:55:14
INDEX 01 04:56:15
TRACK 03 AUDIO
TITLE “Ending Through Changes ”
PERFORMER “Paradise Lost”
INDEX 00 09:37:55
INDEX 01 09:38:41
TRACK 04 AUDIO
TITLE “The Last Fallen Saviour ”
PERFORMER “Paradise Lost”
INDEX 00 13:44:63
INDEX 01 13:45:60
TRACK 05 AUDIO
TITLE “Last Regret **”
PERFORMER “Paradise Lost”
INDEX 00 17:23:33
INDEX 01 17:24:34
TRACK 06 AUDIO
TITLE “Faith Devides Us – Death Unites Us **”
PERFORMER “Paradise Lost”
INDEX 00 21:42:25
INDEX 01 21:43:41
TRACK 07 AUDIO
TITLE “Cardinal Zero”
PERFORMER “Paradise Lost”
INDEX 00 25:57:60
INDEX 01 25:59:44
TRACK 08 AUDIO
TITLE “Back On Disaster”
PERFORMER “Paradise Lost”
INDEX 00 30:24:22
INDEX 01 30:25:07
TRACK 09 AUDIO
TITLE “Sons Of Perdition”
PERFORMER “Paradise Lost”
INDEX 00 34:36:04
INDEX 01 34:37:05
TRACK 10 AUDIO
TITLE “Godless”
PERFORMER “Paradise Lost”
INDEX 00 38:46:40
INDEX 01 38:47:52
TRACK 11 AUDIO
TITLE “Missing ***”
PERFORMER “Paradise Lost”
INDEX 00 41:01:44
INDEX 01 41:02:30
TRACK 12 AUDIO
TITLE “Silent In Heart”
PERFORMER “Paradise Lost”
INDEX 00 45:28:65
INDEX 01 45:29:48
TRACK 13 AUDIO
TITLE “Gothic 2013”
PERFORMER “Paradise Lost”
INDEX 00 48:49:61
INDEX 01 48:50:66
TRACK 14 AUDIO
TITLE “Our Saviour 2013”
PERFORMER “Paradise Lost”
INDEX 00 54:01:49
INDEX 01 54:03:33


0

Publication author

offline 9 hours

Chaos

3
Comments: 4Publics: 3424Registration: 02-02-2019
Spread the Download

Leave a Reply

Your email address will not be published. Required fields are marked *

Enter the text from the image below
 

This site uses Akismet to reduce spam. Learn how your comment data is processed.