Paradise Lost – Symbol Of Life




No Cover available

Artist: Paradise Lost
Year: 2002
Genre: Metal
Notes: Discogs
Add. Notes:
Watch Songs on: YouTube
Cover incl.: Yes
Encoder: FLAC
Bitrate: ~1000 kBit/s (44.1 kHz/16 Bit/s)
Log & Cue incl.: Yes/Yes
Size: 328,7 MB
Password: “slam” (without ” “)


All Downloads/Hosters are compatible

Download 1
KatFile.com
Turbobit.net
Rapidgator.net
FileFactory.com
Download 2
KatFile.com
Turbobit.net
Rapidgator.net
FileFactory.com

Tracklist:

1 Isolate 3:44
2 Erased 3:32
3 Two Worlds 3:29
4 Pray Nightfall 4:11
5 Primal 4:23
6 Perfect Mask 3:46
7 Mystify 3:49
8 No Celebration 3:48
9 Self-Obsessed 3:07
10 Symbol Of Life 3:56
11 Channel For The Pain 3:55

EAC-Log, CUE-Sheed & NFO:

Click to open spoiler
Exact Audio Copy V0.99 prebeta 5 from 4. May 2009

Отчёт EAC об извлечении, выполненном 24. января 2011, 11:26

Paradise Lost / Symbol Of Life

Дисковод: HL-DT-STDVDRAM GSA-H12N Adapter: 1 ID: 0

Режим чтения : Достоверность
Использование точного потока : Да
Отключение кэша аудио : Да
Использование указателей C2 : Нет

Коррекция смещения при чтении : 667
Способность читать области Lead-in и Lead-out : Нет
Заполнение пропущенных сэмплов тишиной : Да
Удаление блоков с тишиной в начале и конце : Нет
При вычислениях CRC использовались нулевые сэмплы : Да
Интерфейс : Встроенный Win32-интерфейс для Win NT/2000

Выходной формат : Внутренние WAV-операции
Формат сэмплов : 44.100 Гц; 16 бит; стерео

TOC извлечённого CD

Трек | Старт | Длительность | Начальный сектор | Конечный сектор
———————————————————————
1 | 0:00.00 | 3:44.38 | 0 | 16837
2 | 3:44.38 | 3:32.66 | 16838 | 32803
3 | 7:17.29 | 3:29.18 | 32804 | 48496
4 | 10:46.47 | 4:11.63 | 48497 | 67384
5 | 14:58.35 | 4:23.09 | 67385 | 87118
6 | 19:21.44 | 3:46.02 | 87119 | 104070
7 | 23:07.46 | 3:49.45 | 104071 | 121290
8 | 26:57.16 | 3:48.31 | 121291 | 138421
9 | 30:45.47 | 3:07.11 | 138422 | 152457
10 | 33:52.58 | 3:56.54 | 152458 | 170211
11 | 37:49.37 | 3:53.01 | 170212 | 187687
12 | 44:14.38 | 29:43.37 | 199088 | 332849

Характеристики диапазона извлечения и сообщения об ошибках

Выбранный диапазон

Имя файла C:\Documents and Settings\Ромыч Троф\Рабочий стол\Paradise Lost – Symbol Of Life\Paradise Lost – Symbol Of Life.wav

Пиковый уровень 99.2 %
Качество диапазона 100.0 %
CRC теста ADAE7374
CRC копии ADAE7374
Копирование… OK

Ошибок не произошло

Конец отчёта

REM GENRE Metal
REM DATE 2002
REM DISCID A411560C
REM COMMENT “ExactAudioCopy v0.99pb5”
PERFORMER “Paradise Lost”
TITLE “Symbol Of Life”
FILE “Paradise Lost – Symbol Of Life.flac” WAVE
TRACK 01 AUDIO
TITLE “Isolate”
PERFORMER “Paradise Lost”
INDEX 01 00:00:00
TRACK 02 AUDIO
TITLE “Erased”
PERFORMER “Paradise Lost”
INDEX 00 03:44:37
INDEX 01 03:44:38
TRACK 03 AUDIO
TITLE “Two Worlds”
PERFORMER “Paradise Lost”
INDEX 00 07:17:28
INDEX 01 07:17:29
TRACK 04 AUDIO
TITLE “Pray Nightfall”
PERFORMER “Paradise Lost”
INDEX 00 10:46:46
INDEX 01 10:46:47
TRACK 05 AUDIO
TITLE “Primal”
PERFORMER “Paradise Lost”
INDEX 00 14:58:34
INDEX 01 14:58:35
TRACK 06 AUDIO
TITLE “Perfect Mask”
PERFORMER “Paradise Lost”
INDEX 00 19:21:43
INDEX 01 19:21:44
TRACK 07 AUDIO
TITLE “Mystify”
PERFORMER “Paradise Lost”
INDEX 00 23:07:45
INDEX 01 23:07:46
TRACK 08 AUDIO
TITLE “No Celebration”
PERFORMER “Paradise Lost”
INDEX 00 26:57:15
INDEX 01 26:57:16
TRACK 09 AUDIO
TITLE “Self-Obsessed”
PERFORMER “Paradise Lost”
INDEX 00 30:45:46
INDEX 01 30:45:47
TRACK 10 AUDIO
TITLE “Symbol Of Life”
PERFORMER “Paradise Lost”
INDEX 00 33:52:57
INDEX 01 33:52:58
TRACK 11 AUDIO
TITLE “Channel For The Pain”
PERFORMER “Paradise Lost”
INDEX 00 37:49:36
INDEX 01 37:49:37


Leave a Reply

Your email address will not be published. Required fields are marked *

Enter the text from the image below
 

This site uses Akismet to reduce spam. Learn how your comment data is processed.