Paradise Lost – Paradise Lost (Enhanced UK Version)




No Cover available

Artist: Paradise Lost
Year: 2005
Genre: Metal
Notes: Discogs
Add. Notes: Enhanced UK Version
Watch Songs on: YouTube
Cover incl.: Yes
Encoder: FLAC
Bitrate: ~1000 kBit/s (44.1 kHz/16 Bit/s)
Log & Cue incl.: Yes/Yes
Size: 432,21 MB
Password: “slam” (without ” “)


All Downloads/Hosters are compatible

Download 1
KatFile.com
Turbobit.net
Rapidgator.net
FileFactory.com
Download 2
KatFile.com
Turbobit.net
Rapidgator.net
FileFactory.com

Tracklist:

1 Don't Belong 4:18
2 Close Your Eyes 4:20
3 Grey 3:27
4 Redshift 3:28
5 Forever After 3:47
6 Sun Fading 3:26
7 Laws Of Cause 4:09
8 All You Leave Behind 2:59
9 Accept The Pain 3:21
10 Shine 4:05
11 Spirit 4:20
12 Over The Madness 5:19

Bonus Tracks:
13 Let Me Drown 3:10
14 A Side You'll Never Know 4:11

EAC-Log, CUE-Sheed & NFO:

Click to open spoiler
Exact Audio Copy V0.99 prebeta 5 from 4. May 2009

Отчёт EAC об извлечении, выполненном 18. апреля 2011, 20:37

Paradise Lost / Paradise Lost (UK Release)

Дисковод: TSSTcorpCD/DVDW TS-L632D Adapter: 1 ID: 0

Режим чтения : Достоверность
Использование точного потока : Да
Отключение кэша аудио : Да
Использование указателей C2 : Нет

Коррекция смещения при чтении : 6
Способность читать области Lead-in и Lead-out : Нет
Заполнение пропущенных сэмплов тишиной : Да
Удаление блоков с тишиной в начале и конце : Нет
При вычислениях CRC использовались нулевые сэмплы : Да
Интерфейс : Встроенный Win32-интерфейс для Win NT/2000

Выходной формат : Внутренние WAV-операции
Формат сэмплов : 44.100 Гц; 16 бит; стерео

TOC извлечённого CD

Трек | Старт | Длительность | Начальный сектор | Конечный сектор
———————————————————————
1 | 0:00.00 | 4:18.08 | 0 | 19357
2 | 4:18.08 | 4:20.50 | 19358 | 38907
3 | 8:38.58 | 3:27.34 | 38908 | 54466
4 | 12:06.17 | 3:28.00 | 54467 | 70066
5 | 15:34.17 | 3:47.44 | 70067 | 87135
6 | 19:21.61 | 3:26.59 | 87136 | 102644
7 | 22:48.45 | 4:09.19 | 102645 | 121338
8 | 26:57.64 | 2:59.15 | 121339 | 134778
9 | 29:57.04 | 3:21.57 | 134779 | 149910
10 | 33:18.61 | 4:05.07 | 149911 | 168292
11 | 37:23.68 | 4:20.13 | 168293 | 187805
12 | 41:44.06 | 5:19.14 | 187806 | 211744
13 | 47:03.20 | 3:10.31 | 211745 | 226025
14 | 50:13.51 | 4:11.42 | 226026 | 244892

Характеристики диапазона извлечения и сообщения об ошибках

Выбранный диапазон

Имя файла F:\Paradise Lost – Paradise Lost (UK Release).wav

Пиковый уровень 100.0 %
Качество диапазона 100.0 %
CRC теста E382CF7F
CRC копии E382CF7F
Копирование… OK

Ошибок не произошло

AccurateRip: сводка

Трек 1 точное извлечение (доверие 1) [ADEE3A15]
Трек 2 точное извлечение (доверие 1) [4D59A014]
Трек 3 точное извлечение (доверие 1) [73F1BC05]
Трек 4 точное извлечение (доверие 1) [175384CD]
Трек 5 точное извлечение (доверие 1) [B1D4C6D7]
Трек 6 точное извлечение (доверие 1) [42F2377A]
Трек 7 точное извлечение (доверие 1) [13FE50BF]
Трек 8 точное извлечение (доверие 1) [A75C8D47]
Трек 9 точное извлечение (доверие 1) [8735D9AD]
Трек 10 точное извлечение (доверие 1) [2E71BCA4]
Трек 11 точное извлечение (доверие 1) [F610F361]
Трек 12 точное извлечение (доверие 1) [ECEBDC3D]
Трек 13 точное извлечение (доверие 1) [D666F9A7]
Трек 14 точное извлечение (доверие 1) [960EB276]

Все треки извлечены точно

Конец отчёта

REM GENRE “Heavy Metal”
REM DATE 2005
REM DISCID AB0CC10E
REM COMMENT “ExactAudioCopy v0.99pb5”
PERFORMER “Paradise Lost”
TITLE “Paradise Lost (UK Release)”
FILE “Paradise Lost – Paradise Lost (UK Release).flac” WAVE
TRACK 01 AUDIO
TITLE “Don’t Belong”
PERFORMER “Paradise Lost”
INDEX 01 00:00:00
TRACK 02 AUDIO
TITLE “Close Your Eyes”
PERFORMER “Paradise Lost”
INDEX 01 04:18:08
TRACK 03 AUDIO
TITLE “Grey”
PERFORMER “Paradise Lost”
INDEX 01 08:38:58
TRACK 04 AUDIO
TITLE “Redshift”
PERFORMER “Paradise Lost”
INDEX 01 12:06:17
TRACK 05 AUDIO
TITLE “Forever After”
PERFORMER “Paradise Lost”
INDEX 01 15:34:17
TRACK 06 AUDIO
TITLE “Sun Fading”
PERFORMER “Paradise Lost”
INDEX 01 19:21:61
TRACK 07 AUDIO
TITLE “Laws of Cause”
PERFORMER “Paradise Lost”
INDEX 01 22:48:45
TRACK 08 AUDIO
TITLE “All You Leave Behind”
PERFORMER “Paradise Lost”
INDEX 01 26:57:64
TRACK 09 AUDIO
TITLE “Accept the Pain”
PERFORMER “Paradise Lost”
INDEX 01 29:57:04
TRACK 10 AUDIO
TITLE “Shine”
PERFORMER “Paradise Lost”
INDEX 01 33:18:61
TRACK 11 AUDIO
TITLE “Spirit”
PERFORMER “Paradise Lost”
INDEX 01 37:23:68
TRACK 12 AUDIO
TITLE “Over the Madness”
PERFORMER “Paradise Lost”
INDEX 01 41:44:06
TRACK 13 AUDIO
TITLE “Let me Drown”
PERFORMER “Paradise Lost”
INDEX 00 47:03:08
INDEX 01 47:03:20
TRACK 14 AUDIO
TITLE “A Side You’ll Never Know”
PERFORMER “Paradise Lost”
INDEX 00 50:13:30
INDEX 01 50:13:51


0

Publication author

offline 14 hours

Chaos

3
Comments: 4Publics: 3418Registration: 02-02-2019
Spread the Download

Leave a Reply

Your email address will not be published. Required fields are marked *

Enter the text from the image below
 

This site uses Akismet to reduce spam. Learn how your comment data is processed.