Paradise Lost – In Requiem (Japanese Edition)




No Cover available

Artist: Paradise Lost
Year: 2007
Genre: Metal
Notes: Discogs
Add. Notes: Japanese Edition
Watch Songs on: YouTube
Cover incl.: Yes
Encoder: FLAC
Bitrate: ~1000 kBit/s (44.1 kHz/16 Bit/s)
Log & Cue incl.: Yes/Yes
Size: 454,3 MB
Password: “slam” (without ” “)


All Downloads/Hosters are compatible

Download 1
KatFile.com
Turbobit.net
FileFactory.com
Rapidgator.net
Download 2
KatFile.com
Turbobit.net
FileFactory.com
Rapidgator.net

Tracklist:

1 Never For The Damned 5:02
2 Ash & Debris 4:16
3 The Enemy 3:39
4 Praise Lamented Shade 4:03
5 Requiem 4:25
6 Unreachable 3:39
7 Prelude To Descent 4:12
8 Fallen Children 3:38
9 Beneath Black Skies 4:13
10 Sedative God 3:59
11 Your Own Reality 4:08
12 Missing 4:31
13 Silent In Heart 3:24

Bonus Track
14 Sons Of Perdition 4:13

EAC-Log, CUE-Sheed & NFO:

Click to open spoiler
Exact Audio Copy V0.99 prebeta 5 from 4. May 2009

EAC extraction logfile from 16. March 2010, 12:19

PARADISELOST / In Requiem [Avalon, MICP-10671, Japan]

Used drive : PLEXTOR DVDR PX-716A Adapter: 2 ID: 0

Read mode : Secure
Utilize accurate stream : Yes
Defeat audio cache : Yes
Make use of C2 pointers : No

Read offset correction : 30
Overread into Lead-In and Lead-Out : No
Fill up missing offset samples with silence : Yes
Delete leading and trailing silent blocks : No
Null samples used in CRC calculations : Yes
Used interface : Native Win32 interface for Win NT & 2000

Used output format : User Defined Encoder
Selected bitrate : 128 kBit/s
Quality : High
Add ID3 tag : No
Command line compressor : C:\Program Files (x86)\Exact Audio Copy\Flac\flac.exe
Additional command line options : -T “DATE=%y” -T “GENRE=%m” -8 -V %s

TOC of the extracted CD

Track | Start | Length | Start sector | End sector
———————————————————
1 | 0:00.00 | 5:02.21 | 0 | 22670
2 | 5:02.21 | 4:16.20 | 22671 | 41890
3 | 9:18.41 | 3:39.04 | 41891 | 58319
4 | 12:57.45 | 4:02.45 | 58320 | 76514
5 | 17:00.15 | 4:25.22 | 76515 | 96411
6 | 21:25.37 | 3:38.48 | 96412 | 112809
7 | 25:04.10 | 4:11.41 | 112810 | 131675
8 | 29:15.51 | 3:38.09 | 131676 | 148034
9 | 32:53.60 | 4:12.41 | 148035 | 166975
10 | 37:06.26 | 3:59.11 | 166976 | 184911
11 | 41:05.37 | 4:07.58 | 184912 | 203494
12 | 45:13.20 | 4:31.57 | 203495 | 223876
13 | 49:45.02 | 3:24.40 | 223877 | 239216
14 | 53:09.42 | 4:13.22 | 239217 | 258213

Range status and errors

Selected range

Filename D:\EAC\PARADISELOST – In Requiem [Avalon, MICP-10671, Japan].wav

Peak level 99.8 %
Range quality 99.9 %
Test CRC D4670C64
Copy CRC D4670C64
Copy OK

No errors occurred

AccurateRip summary

Track 1 not present in database
Track 2 not present in database
Track 3 not present in database
Track 4 not present in database
Track 5 not present in database
Track 6 not present in database
Track 7 not present in database
Track 8 not present in database
Track 9 not present in database
Track 10 not present in database
Track 11 not present in database
Track 12 not present in database
Track 13 not present in database
Track 14 not present in database

None of the tracks are present in the AccurateRip database

End of status report

REM GENRE “Gothic Doom Metal”
REM DATE 2007
REM DISCID D00D720E
REM COMMENT “ExactAudioCopy v0.99pb5”
PERFORMER “PARADISELOST”
TITLE “In Requiem [Avalon, MICP-10671, Japan]”
FILE “PARADISELOST – In Requiem [Avalon, MICP-10671, Japan].flac” WAVE
TRACK 01 AUDIO
TITLE “Never For The Damned”
PERFORMER “PARADISELOST”
INDEX 01 00:00:00
TRACK 02 AUDIO
TITLE “Ash & Debris”
PERFORMER “PARADISELOST”
INDEX 01 05:02:21
TRACK 03 AUDIO
TITLE “The Enemy”
PERFORMER “PARADISELOST”
INDEX 01 09:18:41
TRACK 04 AUDIO
TITLE “Praise Lamented Shade”
PERFORMER “PARADISELOST”
INDEX 01 12:57:45
TRACK 05 AUDIO
TITLE “Requiem”
PERFORMER “PARADISELOST”
INDEX 01 17:00:15
TRACK 06 AUDIO
TITLE “Unreachable”
PERFORMER “PARADISELOST”
INDEX 01 21:25:37
TRACK 07 AUDIO
TITLE “Prelude To Descent”
PERFORMER “PARADISELOST”
INDEX 01 25:04:10
TRACK 08 AUDIO
TITLE “Fallen Children”
PERFORMER “PARADISELOST”
INDEX 01 29:15:51
TRACK 09 AUDIO
TITLE “Beneath Black Skies”
PERFORMER “PARADISELOST”
INDEX 01 32:53:60
TRACK 10 AUDIO
TITLE “Sedative God”
PERFORMER “PARADISELOST”
INDEX 01 37:06:26
TRACK 11 AUDIO
TITLE “Your Own Reality”
PERFORMER “PARADISELOST”
INDEX 01 41:05:37
TRACK 12 AUDIO
TITLE “Missing”
PERFORMER “PARADISELOST”
INDEX 00 45:08:22
INDEX 01 45:13:20
TRACK 13 AUDIO
TITLE “Silent In Heart”
PERFORMER “PARADISELOST”
INDEX 00 49:43:04
INDEX 01 49:45:02
TRACK 14 AUDIO
TITLE “Sons Of Perdition”
PERFORMER “PARADISELOST”
INDEX 00 53:07:44
INDEX 01 53:09:42


0

Publication author

offline 9 hours

Chaos

3
Comments: 4Publics: 3424Registration: 02-02-2019
Spread the Download

Leave a Reply

Your email address will not be published. Required fields are marked *

Enter the text from the image below
 

This site uses Akismet to reduce spam. Learn how your comment data is processed.