Paradise Lost – Icon




No Cover available

Artist: Paradise Lost
Year: 1993
Genre: Metal
Notes: Discogs
Add. Notes:
Watch Songs on: YouTube
Cover incl.: Yes
Encoder: FLAC
Bitrate: ~1000 kBit/s (44.1 kHz/16 Bit/s)
Log & Cue incl.: Yes/Yes
Size: 386,3 MB
Password: “slam” (without ” “)


All Downloads/Hosters are compatible

Download 1
KatFile.com
Turbobit.net
FileFactory.com
Rapidgator.net
Download 2
KatFile.com
Turbobit.net
FileFactory.com
Rapidgator.net

Tracklist:

1 Embers Fire 4:44
2 Remembrance 3:26
3 Forging Sympathy 4:43
4 Joys Of The Emptiness 3:29
5 Dying Freedom 3:43
6 Widow 3:04
7 Colossal Rains 4:35
8 Weeping Words 3:50
9 Poison 2:59
10 True Belief 4:30
11 Shallow Seasons 4:55
12 Christendom 4:30
13 Deus Misereatur 1:57

EAC-Log, CUE-Sheed & NFO:

Click to open spoiler
Exact Audio Copy V0.99 prebeta 5 from 4. May 2009

Отчёт EAC об извлечении, выполненном 4. ноября 2010, 21:09

Paradise Lost / Icon

Дисковод: TSSTcorpCD/DVDW TS-L632D Adapter: 1 ID: 0

Режим чтения : Достоверность
Использование точного потока : Да
Отключение кэша аудио : Да
Использование указателей C2 : Нет

Коррекция смещения при чтении : 6
Способность читать области Lead-in и Lead-out : Нет
Заполнение пропущенных сэмплов тишиной : Да
Удаление блоков с тишиной в начале и конце : Нет
При вычислениях CRC использовались нулевые сэмплы : Да
Интерфейс : Встроенный Win32-интерфейс для Win NT/2000

Выходной формат : Внутренние WAV-операции
Формат сэмплов : 44.100 Гц; 16 бит; стерео

TOC извлечённого CD

Трек | Старт | Длительность | Начальный сектор | Конечный сектор
———————————————————————
1 | 0:00.00 | 4:44.27 | 0 | 21326
2 | 4:44.27 | 3:26.30 | 21327 | 36806
3 | 8:10.57 | 4:43.35 | 36807 | 58066
4 | 12:54.17 | 3:29.08 | 58067 | 73749
5 | 16:23.25 | 3:43.60 | 73750 | 90534
6 | 20:07.10 | 3:04.42 | 90535 | 104376
7 | 23:11.52 | 4:35.58 | 104377 | 125059
8 | 27:47.35 | 3:50.55 | 125060 | 142364
9 | 31:38.15 | 2:59.70 | 142365 | 155859
10 | 34:38.10 | 4:30.05 | 155860 | 176114
11 | 39:08.15 | 4:55.57 | 176115 | 198296
12 | 44:03.72 | 4:30.60 | 198297 | 218606
13 | 48:34.57 | 1:57.30 | 218607 | 227411

Характеристики диапазона извлечения и сообщения об ошибках

Выбранный диапазон

Имя файла C:\Users\Александр\Downloads\Paradise Lost – Icon (1993).wav

Пиковый уровень 100.0 %
Качество диапазона 100.0 %
CRC теста 83EFD40F
CRC копии 83EFD40F
Копирование… OK

Ошибок не произошло

AccurateRip: сводка

Трек 1 точное извлечение (доверие 90) [AA47B945]
Трек 2 точное извлечение (доверие 91) [4E8DB406]
Трек 3 точное извлечение (доверие 91) [05B338F8]
Трек 4 точное извлечение (доверие 91) [ED797560]
Трек 5 точное извлечение (доверие 90) [120EEB57]
Трек 6 точное извлечение (доверие 87) [C24F03DE]
Трек 7 точное извлечение (доверие 88) [656CE6FF]
Трек 8 точное извлечение (доверие 87) [1F250F3B]
Трек 9 точное извлечение (доверие 89) [107975A9]
Трек 10 точное извлечение (доверие 89) [D3EC7534]
Трек 11 точное извлечение (доверие 91) [AF015AC4]
Трек 12 точное извлечение (доверие 90) [B9D68536]
Трек 13 точное извлечение (доверие 90) [41FB6737]

Все треки извлечены точно

Конец отчёта

REM GENRE “Gothic Doom Metal”
REM DATE 1993
REM DISCID BE0BD80D
REM COMMENT “ExactAudioCopy v0.99pb5”
PERFORMER “Paradise Lost”
TITLE “Icon”
FILE “Paradise Lost – Icon (1993).wav” WAVE
TRACK 01 AUDIO
TITLE “Embers Fire”
PERFORMER “Paradise Lost”
INDEX 01 00:00:00
TRACK 02 AUDIO
TITLE “Remembrance”
PERFORMER “Paradise Lost”
INDEX 00 04:44:25
INDEX 01 04:44:27
TRACK 03 AUDIO
TITLE “Forging Sympathy”
PERFORMER “Paradise Lost”
INDEX 00 08:10:55
INDEX 01 08:10:57
TRACK 04 AUDIO
TITLE “Joys Of The Emptiness”
PERFORMER “Paradise Lost”
INDEX 00 12:54:15
INDEX 01 12:54:17
TRACK 05 AUDIO
TITLE “Dying Freedom”
PERFORMER “Paradise Lost”
INDEX 00 16:23:22
INDEX 01 16:23:25
TRACK 06 AUDIO
TITLE “Widow”
PERFORMER “Paradise Lost”
INDEX 00 20:07:07
INDEX 01 20:07:10
TRACK 07 AUDIO
TITLE “Colossal Rains”
PERFORMER “Paradise Lost”
INDEX 00 23:11:50
INDEX 01 23:11:52
TRACK 08 AUDIO
TITLE “Weeping Words”
PERFORMER “Paradise Lost”
INDEX 00 27:47:32
INDEX 01 27:47:35
TRACK 09 AUDIO
TITLE “Poison”
PERFORMER “Paradise Lost”
INDEX 00 31:38:12
INDEX 01 31:38:15
TRACK 10 AUDIO
TITLE “True Belief”
PERFORMER “Paradise Lost”
INDEX 00 34:38:07
INDEX 01 34:38:10
TRACK 11 AUDIO
TITLE “Shallow Seasons”
PERFORMER “Paradise Lost”
INDEX 00 39:08:12
INDEX 01 39:08:15
TRACK 12 AUDIO
TITLE “Christendom”
PERFORMER “Paradise Lost”
INDEX 00 44:03:70
INDEX 01 44:03:72
TRACK 13 AUDIO
TITLE “Deus Misereatur”
PERFORMER “Paradise Lost”
INDEX 00 48:34:55
INDEX 01 48:34:57


Leave a Reply

Your email address will not be published. Required fields are marked *

Enter the text from the image below
 

This site uses Akismet to reduce spam. Learn how your comment data is processed.