Paradise Lost – Icon (Poland Edition)




No Cover available

Artist: Paradise Lost
Year: 1993
Genre: Metal
Notes: Discogs
Add. Notes: Poland Edition
Watch Songs on: YouTube
Cover incl.: Yes
Encoder: FLAC
Bitrate: ~900 kBit/s (44.1 kHz/16 Bit/s)
Log & Cue incl.: Yes/Yes
Size: 521,9 MB
Password: “slam” (without ” “)


All Downloads/Hosters are compatible

Download 1
KatFile.com
Turbobit.net
Rapidgator.net
FileFactory.com
Download 2
KatFile.com
Turbobit.net
Rapidgator.net
FileFactory.com

Tracklist:

1 Embers Fire 4:44
2 Remembrance 3:26
3 Forging Sympathy 4:43
4 Joys Of The Emptiness 3:29
5 Dying Freedom 3:43
6 Widow 3:04
7 Colossal Rains 4:35
8 Weeping Words 3:50
9 Poison 2:59
10 True Belief 4:30
11 Shallow Seasons 4:55
12 Christendom 4:30
13 Deus Misereatur 1:56

Poland Exl. Tracks:
14 Sweetness 
15 Your Hand In Mine (live) 

EAC-Log, CUE-Sheed & NFO:

Click to open spoiler
Exact Audio Copy V0.99 prebeta 5 from 4. May 2009

Отчёт EAC об извлечении, выполненном 24. мая 2012, 21:30

Paradise Lost / Icon

Дисковод: HL-DT-STDVD-RAM GH22NP20 Adapter: 0 ID: 0

Режим чтения : Достоверность
Использование точного потока : Да
Отключение кэша аудио : Да
Использование указателей C2 : Нет

Коррекция смещения при чтении : 102
Способность читать области Lead-in и Lead-out : Нет
Заполнение пропущенных сэмплов тишиной : Да
Удаление блоков с тишиной в начале и конце : Нет
При вычислениях CRC использовались нулевые сэмплы : Да
Интерфейс : Установленный внешний ASPI-интерфейс

Выходной формат : Внутренние WAV-операции
Формат сэмплов : 44.100 Гц; 16 бит; стерео

TOC извлечённого CD

Трек | Старт | Длительность | Начальный сектор | Конечный сектор
———————————————————————
1 | 0:00.00 | 4:44.17 | 0 | 21316
2 | 4:44.17 | 3:26.33 | 21317 | 36799
3 | 8:10.50 | 4:43.40 | 36800 | 58064
4 | 12:54.15 | 3:29.05 | 58065 | 73744
5 | 16:23.20 | 3:43.60 | 73745 | 90529
6 | 20:07.05 | 3:04.40 | 90530 | 104369
7 | 23:11.45 | 4:35.65 | 104370 | 125059
8 | 27:47.35 | 3:50.50 | 125060 | 142359
9 | 31:38.10 | 2:59.70 | 142360 | 155854
10 | 34:38.05 | 4:30.02 | 155855 | 176106
11 | 39:08.07 | 4:55.55 | 176107 | 198286
12 | 44:03.62 | 4:30.65 | 198287 | 218601
13 | 48:34.52 | 1:56.10 | 218602 | 227311
14 | 50:30.62 | 5:34.38 | 227312 | 252399
15 | 56:05.25 | 6:40.12 | 252400 | 282411

Характеристики диапазона извлечения и сообщения об ошибках

Выбранный диапазон

Имя файла D:\Раздачи\Paradise Lost – 1993 – Icon (MASS CD 0061)\Paradise Lost – Icon.wav

Пиковый уровень 100.0 %
Качество диапазона 100.0 %
CRC теста 935C3961
CRC копии 935C3961
Копирование… OK

Ошибок не произошло

AccurateRip: сводка

Трек 1 точность не определена (достоверность 3) [02225AF5], AccurateRip вернул [5B31CD00]
Трек 2 точность не определена (достоверность 3) [195E3B4C], AccurateRip вернул [330007A3]
Трек 3 точность не определена (достоверность 3) [D36DCEC8], AccurateRip вернул [D871E662]
Трек 4 точность не определена (достоверность 3) [E03BDC7F], AccurateRip вернул [D3E34224]
Трек 5 точность не определена (достоверность 3) [F61F82E1], AccurateRip вернул [556F239F]
Трек 6 точность не определена (достоверность 3) [2A6BBDA1], AccurateRip вернул [27413920]
Трек 7 точность не определена (достоверность 3) [22388882], AccurateRip вернул [2DCAC49C]
Трек 8 точность не определена (достоверность 3) [1ACF3B1E], AccurateRip вернул [FF78D79B]
Трек 9 точность не определена (достоверность 3) [52A26464], AccurateRip вернул [82CB38C3]
Трек 10 точность не определена (достоверность 3) [EB8D416F], AccurateRip вернул [4BE92CE4]
Трек 11 точность не определена (достоверность 3) [8B6DFD61], AccurateRip вернул [DF9FC7AF]
Трек 12 точность не определена (достоверность 3) [D761CF5E], AccurateRip вернул [ED9617D1]
Трек 13 точность не определена (достоверность 3) [E6FE7C73], AccurateRip вернул [FFA5DC71]
Трек 14 точность не определена (достоверность 3) [7E20F4EF], AccurateRip вернул [FACE067E]
Трек 15 точность не определена (достоверность 3) [FD345690], AccurateRip вернул [A55D41E2]

Ни один трек не прошёл проверки на точность
В вашей базе может быть иной вариант штамповки диска

Конец отчёта

REM GENRE “Doom Metal”
REM DATE 1993
REM DISCID D90EB50F
REM COMMENT “ExactAudioCopy v0.99pb5”
PERFORMER “Paradise Lost”
TITLE “Icon”
FILE “Paradise Lost – Icon.flac” WAVE
TRACK 01 AUDIO
TITLE “Embers Fire”
PERFORMER “Paradise Lost”
INDEX 01 00:00:00
TRACK 02 AUDIO
TITLE “Remembrance”
PERFORMER “Paradise Lost”
INDEX 01 04:44:17
TRACK 03 AUDIO
TITLE “Forging Sympathy”
PERFORMER “Paradise Lost”
INDEX 01 08:10:50
TRACK 04 AUDIO
TITLE “Joys of the Emptiness”
PERFORMER “Paradise Lost”
INDEX 01 12:54:15
TRACK 05 AUDIO
TITLE “Dying Freedom”
PERFORMER “Paradise Lost”
INDEX 01 16:23:20
TRACK 06 AUDIO
TITLE “Widow”
PERFORMER “Paradise Lost”
INDEX 01 20:07:05
TRACK 07 AUDIO
TITLE “Colossal Rains”
PERFORMER “Paradise Lost”
INDEX 01 23:11:45
TRACK 08 AUDIO
TITLE “Weeping Words”
PERFORMER “Paradise Lost”
INDEX 01 27:47:35
TRACK 09 AUDIO
TITLE “Poison”
PERFORMER “Paradise Lost”
INDEX 01 31:38:10
TRACK 10 AUDIO
TITLE “True Belief”
PERFORMER “Paradise Lost”
INDEX 01 34:38:05
TRACK 11 AUDIO
TITLE “Shallow Seasons”
PERFORMER “Paradise Lost”
INDEX 01 39:08:07
TRACK 12 AUDIO
TITLE “Christendom”
PERFORMER “Paradise Lost”
INDEX 01 44:03:62
TRACK 13 AUDIO
TITLE “Deus Misereatur”
PERFORMER “Paradise Lost”
INDEX 01 48:34:52
TRACK 14 AUDIO
TITLE “Sweetness”
PERFORMER “Paradise Lost”
INDEX 01 50:30:62
TRACK 15 AUDIO
TITLE “Your Hand In Mine (Live)”
PERFORMER “Paradise Lost”
INDEX 00 56:04:57
INDEX 01 56:05:25


0

Publication author

offline 8 hours

Chaos

3
Comments: 4Publics: 3360Registration: 02-02-2019
Spread the Download

Leave a Reply

Your email address will not be published. Required fields are marked *

Enter the text from the image below
 

This site uses Akismet to reduce spam. Learn how your comment data is processed.