Paradise Lost – Host




No Cover available

Artist: Paradise Lost
Year: 1999
Genre: Rock
Notes: Discogs
Add. Notes:
Cover incl.: Yes
Encoder: FLAC
Bitrate: ~900 kBit/s (44.1 kHz/16 Bit/s)
Log & Cue incl.: Yes/Yes
Size: 400,1 MB
Password: “slam” (without ” “)


All Downloads/Hosters are compatible

Download 1
KatFile.com
Turbobit.net
FileFactory.com
Rapidgator.net
Download 2
KatFile.com
Turbobit.net
FileFactory.com
Rapidgator.net

Tracklist:

1 So Much Is Lost 4:17
2 Nothing Sacred 4:02
3 In All Honesty 4:01
4 Harbour 4:23
5 Ordinary Days 3:30
6 It's Too Late 4:47
7 Permanent Solution 3:17
8 Behind The Grey 3:13
9 Wreck 4:41
10 Made The Same 3:33
11 Deep 4:00
12 Year Of Summer 4:17
13 Host 5:12

EAC-Log, CUE-Sheed & NFO:

Click to open spoiler
REM GENRE “Alternative Rock,Synth-pop”
REM DATE 1999
REM DISCID AD0C7A0D
REM COMMENT “ExactAudioCopy v0.99pb5”
PERFORMER “Paradise Lost”
TITLE “Host”
FILE “Paradise Lost – Host.flac” WAVE
TRACK 01 AUDIO
TITLE “So Much Is Lost”
PERFORMER “Paradise Lost”
INDEX 01 00:00:00
TRACK 02 AUDIO
TITLE “Nothing Sacred”
PERFORMER “Paradise Lost”
INDEX 01 04:16:67
TRACK 03 AUDIO
TITLE “In All Honesty”
PERFORMER “Paradise Lost”
INDEX 01 08:19:10
TRACK 04 AUDIO
TITLE “Harbour”
PERFORMER “Paradise Lost”
INDEX 00 12:20:00
INDEX 01 12:21:60
TRACK 05 AUDIO
TITLE “Ordinary Days”
PERFORMER “Paradise Lost”
INDEX 00 16:44:57
INDEX 01 16:45:30
TRACK 06 AUDIO
TITLE “It’s Too Late”
PERFORMER “Paradise Lost”
INDEX 01 20:14:25
TRACK 07 AUDIO
TITLE “Permanent Solution”
PERFORMER “Paradise Lost”
INDEX 01 24:58:65
TRACK 08 AUDIO
TITLE “Behind The Grey”
PERFORMER “Paradise Lost”
INDEX 00 28:15:50
INDEX 01 28:15:60
TRACK 09 AUDIO
TITLE “Wreck”
PERFORMER “Paradise Lost”
INDEX 00 31:28:62
INDEX 01 31:29:17
TRACK 10 AUDIO
TITLE “Made The Same”
PERFORMER “Paradise Lost”
INDEX 00 36:10:40
INDEX 01 36:10:57
TRACK 11 AUDIO
TITLE “Deep”
PERFORMER “Paradise Lost”
INDEX 00 39:44:50
INDEX 01 39:44:55
TRACK 12 AUDIO
TITLE “Year Of Summer”
PERFORMER “Paradise Lost”
INDEX 01 43:45:15
TRACK 13 AUDIO
TITLE “Host”
PERFORMER “Paradise Lost”
INDEX 00 48:01:55
INDEX 01 48:02:07

Exact Audio Copy V0.99 prebeta 5 from 4. May 2009

EAC extraction logfile from 9. November 2010, 20:49

Paradise Lost / Host

Used drive : HL-DT-STDVD-RAM GSA-H55N Adapter: 3 ID: 0

Read mode : Secure
Utilize accurate stream : Yes
Defeat audio cache : Yes
Make use of C2 pointers : No

Read offset correction : 102
Overread into Lead-In and Lead-Out : No
Fill up missing offset samples with silence : Yes
Delete leading and trailing silent blocks : No
Null samples used in CRC calculations : No
Used interface : Installed external ASPI interface

Used output format : User Defined Encoder
Selected bitrate : 1024 kBit/s
Quality : High
Add ID3 tag : No
Command line compressor : C:\Program Files\Exact Audio Copy\FLAC\FLAC.EXE
Additional command line options : -8 -V %s

TOC of the extracted CD

Track | Start | Length | Start sector | End sector
———————————————————
1 | 0:00.00 | 4:16.67 | 0 | 19266
2 | 4:16.67 | 4:02.18 | 19267 | 37434
3 | 8:19.10 | 4:02.50 | 37435 | 55634
4 | 12:21.60 | 4:23.45 | 55635 | 75404
5 | 16:45.30 | 3:28.70 | 75405 | 91074
6 | 20:14.25 | 4:44.40 | 91075 | 112414
7 | 24:58.65 | 3:16.70 | 112415 | 127184
8 | 28:15.60 | 3:13.32 | 127185 | 141691
9 | 31:29.17 | 4:41.40 | 141692 | 162806
10 | 36:10.57 | 3:33.73 | 162807 | 178854
11 | 39:44.55 | 4:00.35 | 178855 | 196889
12 | 43:45.15 | 4:16.67 | 196890 | 216156
13 | 48:02.07 | 5:12.03 | 216157 | 239559

Range status and errors

Selected range

Filename E:\2 Моя музыка lossless\Paradise Lost – Host.wav

Peak level 100.0 %
Range quality 99.9 %
Test CRC 4B81DD73
Copy CRC 4B81DD73
Copy OK

No errors occurred

AccurateRip summary

Track 1 accurately ripped (confidence 94) [5C9350BC]
Track 2 accurately ripped (confidence 96) [EF7B05A0]
Track 3 accurately ripped (confidence 96) [3285A5B8]
Track 4 accurately ripped (confidence 96) [5EA714A5]
Track 5 accurately ripped (confidence 96) [4E397BD8]
Track 6 accurately ripped (confidence 96) [1F9F4635]
Track 7 accurately ripped (confidence 96) [DCA08A9D]
Track 8 accurately ripped (confidence 96) [4955D4B1]
Track 9 accurately ripped (confidence 94) [93ACFD17]
Track 10 accurately ripped (confidence 95) [A66B756C]
Track 11 accurately ripped (confidence 95) [1BD58D9B]
Track 12 accurately ripped (confidence 93) [7D7871E9]
Track 13 accurately ripped (confidence 90) [87CFAA2F]

All tracks accurately ripped

End of status report


Leave a Reply

Your email address will not be published. Required fields are marked *

Enter the text from the image below
 

This site uses Akismet to reduce spam. Learn how your comment data is processed.