Paradise Lost – Gothic




No Cover available

Artist: Paradise Lost
Year: 1991
Genre: Metal
Notes: Discogs
Add. Notes:
Watch Songs on: YouTube
Cover incl.: Yes
Encoder: FLAC
Bitrate: ~900 kBit/s (44.1 kHz/16 Bit/s)
Log & Cue incl.: Yes/Yes
Size: 385,8 MB
Password: “slam” (without ” “)


All Downloads/Hosters are compatible

Download 1
KatFile.com
Turbobit.net
Rapidgator.net
FileFactory.com
Download 2
KatFile.com
Turbobit.net
Rapidgator.net
FileFactory.com

Tracklist:

1 Gothic. 4:51
2 Dead Emotion. 4:37
3 Shattered. 4:01
4 Rapture. 5:09
5 Eternal 3:54
6 Falling Forever. 3:35
7 Angel Tears. 2:40
8 Silent. 4:41
9 The Painless. 4:02
10 Desolate. 1:50

EAC-Log, CUE-Sheed & NFO:

Click to open spoiler
Exact Audio Copy V0.99 prebeta 5 from 4. May 2009

EAC extraction logfile from 12. November 2010, 23:28

Paradise Lost / Gothic

Used drive : MATSHITADVD-R UJ-898 Adapter: 1 ID: 0

Read mode : Secure
Utilize accurate stream : Yes
Defeat audio cache : Yes
Make use of C2 pointers : No

Read offset correction : 102
Overread into Lead-In and Lead-Out : No
Fill up missing offset samples with silence : Yes
Delete leading and trailing silent blocks : No
Null samples used in CRC calculations : Yes
Used interface : Native Win32 interface for Win NT & 2000

Used output format : User Defined Encoder
Selected bitrate : 768 kBit/s
Quality : High
Add ID3 tag : No
Command line compressor : C:\Program Files\Exact Audio Copy\FLAC\FLAC.EXE
Additional command line options : -8 -V -T “ARTIST=%a” -T “TITLE=%t” -T “ALBUM=%g” -T “DATE=%y” -T “TRACKNUMBER=%n” -T “GENRE=%m” -T “COMMENT=%e” %s -o %d

TOC of the extracted CD

Track | Start | Length | Start sector | End sector
———————————————————
1 | 0:00.00 | 4:51.57 | 0 | 21881
2 | 4:51.57 | 4:37.63 | 21882 | 42719
3 | 9:29.45 | 4:01.15 | 42720 | 60809
4 | 13:30.60 | 5:09.00 | 60810 | 83984
5 | 18:39.60 | 3:54.30 | 83985 | 101564
6 | 22:34.15 | 3:35.35 | 101565 | 117724
7 | 26:09.50 | 2:40.10 | 117725 | 129734
8 | 28:49.60 | 4:41.67 | 129735 | 150876
9 | 33:31.52 | 4:02.00 | 150877 | 169026
10 | 37:33.52 | 1:50.23 | 169027 | 177299

Range status and errors

Selected range

Filename C:\FLAC\Gothic\Paradise Lost – Gothic.wav

Peak level 99.9 %
Range quality 100.0 %
Copy CRC 7EF0DB83
Copy OK

No errors occurred

AccurateRip summary

Track 1 accurately ripped (confidence 31) [E2CD6C22]
Track 2 accurately ripped (confidence 30) [5075F840]
Track 3 accurately ripped (confidence 30) [9B55C8A4]
Track 4 accurately ripped (confidence 30) [E4D16577]
Track 5 accurately ripped (confidence 29) [F52EEDE5]
Track 6 accurately ripped (confidence 28) [BAC534CF]
Track 7 accurately ripped (confidence 28) [B6A3938C]
Track 8 accurately ripped (confidence 30) [ED0AF5F5]
Track 9 accurately ripped (confidence 30) [79542941]
Track 10 accurately ripped (confidence 27) [BE8D5271]

All tracks accurately ripped

End of status report

REM GENRE Metal
REM DATE 1991
REM DISCID 6A093C0A
REM COMMENT “ExactAudioCopy v0.99pb5”
PERFORMER “Paradise Lost”
TITLE “Gothic”
FILE “Gothic.flac” WAVE
TRACK 01 AUDIO
TITLE “Gothic”
PERFORMER “Paradise Lost”
INDEX 01 00:00:00
TRACK 02 AUDIO
TITLE “Dead Emotion”
PERFORMER “Paradise Lost”
INDEX 00 04:43:57
INDEX 01 04:51:57
TRACK 03 AUDIO
TITLE “Shattered”
PERFORMER “Paradise Lost”
INDEX 00 09:24:45
INDEX 01 09:29:45
TRACK 04 AUDIO
TITLE “Rapture”
PERFORMER “Paradise Lost”
INDEX 00 13:26:60
INDEX 01 13:30:60
TRACK 05 AUDIO
TITLE “Eternal”
PERFORMER “Paradise Lost”
INDEX 01 18:39:60
TRACK 06 AUDIO
TITLE “Falling Forever”
PERFORMER “Paradise Lost”
INDEX 00 22:25:15
INDEX 01 22:34:15
TRACK 07 AUDIO
TITLE “Angel Tears”
PERFORMER “Paradise Lost”
INDEX 00 25:54:50
INDEX 01 26:09:50
TRACK 08 AUDIO
TITLE “Silent”
PERFORMER “Paradise Lost”
INDEX 00 28:45:60
INDEX 01 28:49:60
TRACK 09 AUDIO
TITLE “The Painless”
PERFORMER “Paradise Lost”
INDEX 00 33:25:52
INDEX 01 33:31:52
TRACK 10 AUDIO
TITLE “Desolate”
PERFORMER “Paradise Lost”
INDEX 00 37:28:52
INDEX 01 37:33:52


0

Publication author

offline 9 hours

Chaos

3
Comments: 4Publics: 3424Registration: 02-02-2019
Spread the Download

Leave a Reply

Your email address will not be published. Required fields are marked *

Enter the text from the image below
 

This site uses Akismet to reduce spam. Learn how your comment data is processed.