Paradise Lost – Gothic




No Cover available

Artist: Paradise Lost
Year: 1991
Genre: Metal
Notes: Discogs
Add. Notes:
Watch Songs on: YouTube
Cover incl.: Yes
Encoder: FLAC
Bitrate: ~900 kBit/s (44.1 kHz/16 Bit/s)
Log & Cue incl.: Yes/Yes
Size: 279,8 MB
Password: “slam” (without ” “)


All Downloads/Hosters are compatible

Download 1
KatFile.com
Turbobit.net
Rapidgator.net
FileFactory.com
Download 2
KatFile.com
Turbobit.net
Rapidgator.net
FileFactory.com

Tracklist:

1 Gothic 4:51
2 Dead Emotions 4:37
3 Shattered 4:01
4 Rapture 5:09
5 Eternal 3:54
6 Falling Forever 3:35
7 Angel Tears 2:40
8 Silent 4:41
9 The Painless 4:02
10 Desolate 1:52

EAC-Log, CUE-Sheed & NFO:

Click to open spoiler
Exact Audio Copy V0.99 prebeta 5 from 4. May 2009

Отчёт EAC об извлечении, выполненном 4. апреля 2012, 15:06

Paradise Lost / Gothic (USA – 1st press)

Дисковод: TSSTcorpCD/DVDW TS-L632D Adapter: 1 ID: 0

Режим чтения : Достоверность
Использование точного потока : Да
Отключение кэша аудио : Да
Использование указателей C2 : Нет

Коррекция смещения при чтении : 6
Способность читать области Lead-in и Lead-out : Нет
Заполнение пропущенных сэмплов тишиной : Да
Удаление блоков с тишиной в начале и конце : Нет
При вычислениях CRC использовались нулевые сэмплы : Да
Интерфейс : Встроенный Win32-интерфейс для Win NT/2000

Выходной формат : Внутренние WAV-операции
Формат сэмплов : 44.100 Гц; 16 бит; стерео

TOC извлечённого CD

Трек | Старт | Длительность | Начальный сектор | Конечный сектор
———————————————————————
1 | 0:00.50 | 4:51.10 | 50 | 21884
2 | 4:51.60 | 4:37.60 | 21885 | 42719
3 | 9:29.45 | 4:01.15 | 42720 | 60809
4 | 13:30.60 | 5:09.00 | 60810 | 83984
5 | 18:39.60 | 3:54.30 | 83985 | 101564
6 | 22:34.15 | 3:35.35 | 101565 | 117724
7 | 26:09.50 | 2:40.10 | 117725 | 129734
8 | 28:49.60 | 4:41.65 | 129735 | 150874
9 | 33:31.50 | 4:02.02 | 150875 | 169026
10 | 37:33.52 | 1:52.23 | 169027 | 177449

Характеристики диапазона извлечения и сообщения об ошибках

Выбранный диапазон

Имя файла D:\Paradise Lost – Gothic (USA – 1st press).wav

Пиковый уровень 99.9 %
Качество диапазона 100.0 %
CRC теста FDAF3C4F
CRC копии FDAF3C4F
Копирование… OK

Ошибок не произошло

AccurateRip: сводка

Трек 1 точное извлечение (доверие 4) [1444DD7A]
Трек 2 точное извлечение (доверие 4) [EFCFB98F]
Трек 3 точное извлечение (доверие 4) [5EB22472]
Трек 4 точное извлечение (доверие 4) [0248E040]
Трек 5 точное извлечение (доверие 4) [75BF1002]
Трек 6 точное извлечение (доверие 4) [449C704F]
Трек 7 точное извлечение (доверие 4) [A907083A]
Трек 8 точное извлечение (доверие 4) [BABF19D8]
Трек 9 точное извлечение (доверие 4) [B2ACD742]
Трек 10 точное извлечение (доверие 4) [A46E825E]

Все треки извлечены точно

Конец отчёта

REM GENRE “Gothic Metal”
REM DATE 1991
REM DISCID 6A093E0A
REM COMMENT “ExactAudioCopy v0.99pb5”
PERFORMER “Paradise Lost”
TITLE “Gothic (USA – 1st press)”
FILE “Paradise Lost – Gothic (USA – 1st press).flac” WAVE
TRACK 01 AUDIO
TITLE “Gothic”
PERFORMER “Paradise Lost”
INDEX 00 00:00:00
INDEX 01 00:00:50
TRACK 02 AUDIO
TITLE “Dead Emotion”
PERFORMER “Paradise Lost”
INDEX 00 04:44:42
INDEX 01 04:51:60
TRACK 03 AUDIO
TITLE “Shattered”
PERFORMER “Paradise Lost”
INDEX 00 09:23:70
INDEX 01 09:29:45
TRACK 04 AUDIO
TITLE “Rapture”
PERFORMER “Paradise Lost”
INDEX 00 13:26:20
INDEX 01 13:30:60
TRACK 05 AUDIO
TITLE “Eternal”
PERFORMER “Paradise Lost”
INDEX 01 18:39:60
TRACK 06 AUDIO
TITLE “Falling Forever”
PERFORMER “Paradise Lost”
INDEX 00 22:26:00
INDEX 01 22:34:15
TRACK 07 AUDIO
TITLE “Angel Tears”
PERFORMER “Paradise Lost”
INDEX 00 26:01:00
INDEX 01 26:09:50
TRACK 08 AUDIO
TITLE “Silent”
PERFORMER “Paradise Lost”
INDEX 00 28:45:45
INDEX 01 28:49:60
TRACK 09 AUDIO
TITLE “The Painless”
PERFORMER “Paradise Lost”
INDEX 00 33:26:30
INDEX 01 33:31:50
TRACK 10 AUDIO
TITLE “Desolate”
PERFORMER “Paradise Lost”
INDEX 00 37:28:62
INDEX 01 37:33:52


Leave a Reply

Your email address will not be published. Required fields are marked *

Enter the text from the image below
 

This site uses Akismet to reduce spam. Learn how your comment data is processed.