Paradise Lost – Draconian Times (Legacy Edition)




No Cover available


Artist: Paradise Lost
Year: 2011
Genre: Metal
Notes: Discogs
Add. Notes: Legacy Edition
Watch Songs on: YouTube
Cover incl.: Yes
Encoder: FLAC
Bitrate: ~1000 kBit/s (44.1 kHz/16 Bit/s)
Log & Cue incl.: Yes/Yes
Size: 603,1 MB
Password: “slam” (without ” “)


All Downloads/Hosters are compatible

Download 1
KatFile.com
Turbobit.net
Rapidgator.net
FileFactory.com
Download 2
KatFile.com
Turbobit.net
Rapidgator.net
FileFactory.com

Tracklist:

1 Enchantment 6:04
2 Hallowed Land 5:03
3 The Last Time 3:27
4 Forever Failure 4:18
5 Once Solemn 3:04
6 Shadowkings 4:42
7 Elusive Cure 3:21
8 Yearn For Change 4:19
9 Shades Of God 3:55
10 Hands Of Reason 3:58
11 I See Your Face 3:17
12 Jaded 3:29
13 Enchantment (Demo 1994) 5:03
14 Last Desire (Demo 1994) 3:10
15 Forever Failure (Live In Germany 1995) 4:21
16 Shadow Kings (Live In Germany 1995) 4:49
17 Once Solemn (Live In Germany 1995) 3:05
18 Hallowed Land (Live In Germany 1995) 5:11
19 The Last Time (Live In Germany 1995) 3:41

EAC-Log, CUE-Sheed & NFO:

Click to open spoiler
REM GENRE “Gothic Metal”
REM DATE 2011
REM DISCID 14125C13
REM COMMENT “ExactAudioCopy v0.99pb5”
PERFORMER “Paradise Lost”
TITLE “Draconian Times (Legacy Edition)”
FILE “Paradise Lost – Draconian Times (Legacy Edition).wav” WAVE
TRACK 01 AUDIO
TITLE “Enchantment”
PERFORMER “Paradise Lost”
INDEX 01 00:00:00
TRACK 02 AUDIO
TITLE “Hallowed Land”
PERFORMER “Paradise Lost”
INDEX 01 06:05:14
TRACK 03 AUDIO
TITLE “The Last Time”
PERFORMER “Paradise Lost”
INDEX 01 11:07:55
TRACK 04 AUDIO
TITLE “Forever Failure”
PERFORMER “Paradise Lost”
INDEX 01 14:34:57
TRACK 05 AUDIO
TITLE “Once Solemn”
PERFORMER “Paradise Lost”
INDEX 01 18:52:68
TRACK 06 AUDIO
TITLE “Shadow Kings”
PERFORMER “Paradise Lost”
INDEX 01 21:56:57
TRACK 07 AUDIO
TITLE “Elusive Cure”
PERFORMER “Paradise Lost”
INDEX 01 26:38:45
TRACK 08 AUDIO
TITLE “Yearn for Change”
PERFORMER “Paradise Lost”
INDEX 01 29:59:33
TRACK 09 AUDIO
TITLE “Shades of God”
PERFORMER “Paradise Lost”
INDEX 01 34:18:74
TRACK 10 AUDIO
TITLE “Hands of Reason”
PERFORMER “Paradise Lost”
INDEX 01 38:13:48
TRACK 11 AUDIO
TITLE “I See Your Face”
PERFORMER “Paradise Lost”
INDEX 01 42:11:65
TRACK 12 AUDIO
TITLE ” Jaded”
PERFORMER “Paradise Lost”
INDEX 01 45:29:01
TRACK 13 AUDIO
TITLE “Enchantment *”
PERFORMER “Paradise Lost”
INDEX 00 48:57:50
INDEX 01 49:00:11
TRACK 14 AUDIO
TITLE ” Last Desire *”
PERFORMER “Paradise Lost”
INDEX 01 54:03:30
TRACK 15 AUDIO
TITLE “Forever Failure **”
PERFORMER “Paradise Lost”
INDEX 01 57:13:09
TRACK 16 AUDIO
TITLE “Shadow Kings **”
PERFORMER “Paradise Lost”
INDEX 01 61:34:23
TRACK 17 AUDIO
TITLE “Once Solemn **”
PERFORMER “Paradise Lost”
INDEX 01 66:23:37
TRACK 18 AUDIO
TITLE “Hallowed Land **”
PERFORMER “Paradise Lost”
INDEX 01 69:28:46
TRACK 19 AUDIO
TITLE “The Last Time **”
PERFORMER “Paradise Lost”
INDEX 01 74:39:74

REM GENRE “Gothic Metal”
REM DATE 2011
REM DISCID 14125C13
REM COMMENT “ExactAudioCopy v0.99pb5”
PERFORMER “Paradise Lost”
TITLE “Draconian Times (Legacy Edition)”
FILE “Paradise Lost – Draconian Times (Legacy Edition).flac” WAVE
TRACK 01 AUDIO
TITLE “Enchantment”
PERFORMER “Paradise Lost”
INDEX 01 00:00:00
TRACK 02 AUDIO
TITLE “Hallowed Land”
PERFORMER “Paradise Lost”
INDEX 01 06:05:14
TRACK 03 AUDIO
TITLE “The Last Time”
PERFORMER “Paradise Lost”
INDEX 01 11:07:55
TRACK 04 AUDIO
TITLE “Forever Failure”
PERFORMER “Paradise Lost”
INDEX 01 14:34:57
TRACK 05 AUDIO
TITLE “Once Solemn”
PERFORMER “Paradise Lost”
INDEX 01 18:52:68
TRACK 06 AUDIO
TITLE “Shadow Kings”
PERFORMER “Paradise Lost”
INDEX 01 21:56:57
TRACK 07 AUDIO
TITLE “Elusive Cure”
PERFORMER “Paradise Lost”
INDEX 01 26:38:45
TRACK 08 AUDIO
TITLE “Yearn for Change”
PERFORMER “Paradise Lost”
INDEX 01 29:59:33
TRACK 09 AUDIO
TITLE “Shades of God”
PERFORMER “Paradise Lost”
INDEX 01 34:18:74
TRACK 10 AUDIO
TITLE “Hands of Reason”
PERFORMER “Paradise Lost”
INDEX 01 38:13:48
TRACK 11 AUDIO
TITLE “I See Your Face”
PERFORMER “Paradise Lost”
INDEX 01 42:11:65
TRACK 12 AUDIO
TITLE ” Jaded”
PERFORMER “Paradise Lost”
INDEX 01 45:29:01
TRACK 13 AUDIO
TITLE “Enchantment *”
PERFORMER “Paradise Lost”
INDEX 00 48:57:50
INDEX 01 49:00:11
TRACK 14 AUDIO
TITLE ” Last Desire *”
PERFORMER “Paradise Lost”
INDEX 01 54:03:30
TRACK 15 AUDIO
TITLE “Forever Failure **”
PERFORMER “Paradise Lost”
INDEX 01 57:13:09
TRACK 16 AUDIO
TITLE “Shadow Kings **”
PERFORMER “Paradise Lost”
INDEX 01 61:34:23
TRACK 17 AUDIO
TITLE “Once Solemn **”
PERFORMER “Paradise Lost”
INDEX 01 66:23:37
TRACK 18 AUDIO
TITLE “Hallowed Land **”
PERFORMER “Paradise Lost”
INDEX 01 69:28:46
TRACK 19 AUDIO
TITLE “The Last Time **”
PERFORMER “Paradise Lost”
INDEX 01 74:39:74


0

Publication author

offline 5 days

Chaos

3
Comments: 4Publics: 3565Registration: 02-02-2019
Spread the Download

Leave a Reply

Your email address will not be published. Required fields are marked *

Enter the text from the image below
 

This site uses Akismet to reduce spam. Learn how your comment data is processed.