Papa Roach – Who Do You Trust




Artist: Papa Roach
Year: 2019
Genre: Rock
Notes: Discogs
Add. Notes:
Cover incl.: Yes
Encoder: FLAC
Bitrate: ~900 kBit/s (44.1 kHz/16 Bit/s)
Log & Cue incl.: Yes
Size: 263,45 MB
Password: “slam” (without ” “)


All Downloads/Hosters are compatible

Download 1
Turbobit.net
Rapidgator.net
UploadByte.com
UploadEver.com
JustUpload.io
Download 2
Turbobit.net
Rapidgator.net
UploadByte.com
UploadEver.com
JustUpload.io
Download 3
Turbobit.net
Rapidgator.net
UploadByte.com
UploadEver.com
JustUpload.io

Tracklist:

1 - The Ending - 3:30
2 - Renegade Music - 3:30
3 - Not The Only One - 3:25
4 - Who Do You Trust? - 3:16
5 - Elevate - 3:10
6 - Come Around - 3:31
7 - Feel Like Home - 3:08
8 - Problems - 3:03
9 - Top Of The World - 3:54
10 - I Suffer Well - 1:21
11 - Maniac - 3:20
12 - Better Than Life - 3:21

EAC-Log, CUE-Sheed & NFO:

Click to open spoiler
Exact Audio Copy V1.3 from 2. September 2016

EAC extraction logfile from 9. February 2019, 22:45

Papa Roach / Who Do You Trust?

Used drive : MATSHITADVD-RAM UJ8E2 S Adapter: 1 ID: 0

Read mode : Secure
Utilize accurate stream : Yes
Defeat audio cache : Yes
Make use of C2 pointers : No

Read offset correction : 103
Overread into Lead-In and Lead-Out : No
Fill up missing offset samples with silence : Yes
Delete leading and trailing silent blocks : No
Null samples used in CRC calculations : Yes
Used interface : Native Win32 interface for Win NT & 2000
Gap handling : Appended to previous track

Used output format : User Defined Encoder
Selected bitrate : 768 kBit/s
Quality : High
Add ID3 tag : No
Command line compressor : C:\Program Files (x86)\Exact Audio Copy\flac.exe
Additional command line options : -8 -V -T “ARTIST=%artist%” -T “TITLE=%title%” -T “ALBUM=%albumtitle%” -T “DATE=%year%” -T “TRACKNUMBER=%tracknr%” -T “TOTALTRACKS=%numtracks%” -T “DISCNUMBER=%cdnumber%” -T “TOTALDISCS=%totalcds%” -T “PERFORMER=%albuminterpret%” -T “COMPOSER=%composer%” -T “GENRE=%genre%” -T “ALBUMARTIST=%albumartist%” -T “ALBUM ARTIST=%albumartist%” -T “COMMENT=%comment%” %source%

TOC of the extracted CD

Track | Start | Length | Start sector | End sector
———————————————————
1 | 0:00.00 | 3:29.62 | 0 | 15736
2 | 3:29.62 | 3:29.39 | 15737 | 31450
3 | 6:59.26 | 3:25.35 | 31451 | 46860
4 | 10:24.61 | 3:16.36 | 46861 | 61596
5 | 13:41.22 | 3:10.00 | 61597 | 75846
6 | 16:51.22 | 3:30.72 | 75847 | 91668
7 | 20:22.19 | 3:07.63 | 91669 | 105756
8 | 23:30.07 | 3:03.33 | 105757 | 119514
9 | 26:33.40 | 3:53.50 | 119515 | 137039
10 | 30:27.15 | 1:21.25 | 137040 | 143139
11 | 31:48.40 | 3:20.16 | 143140 | 158155
12 | 35:08.56 | 3:21.15 | 158156 | 173245

Track 1

Filename C:\BackUP_Asus- FREE\rip\Papa Roach – Who Do You Trust (2019)(FLAC)\01 The Ending.wav

Pre-gap length 0:00:02.00

Peak level 100.0 %
Extraction speed 1.8 X
Track quality 99.9 %
Test CRC A579D3A5
Copy CRC A579D3A5
Track not present in AccurateRip database
Copy OK

Track 2

Filename C:\BackUP_Asus- FREE\rip\Papa Roach – Who Do You Trust (2019)(FLAC)\02 Renegade Music.wav

Peak level 100.0 %
Extraction speed 2.6 X
Track quality 100.0 %
Test CRC 8088A467
Copy CRC 8088A467
Track not present in AccurateRip database
Copy OK

Track 3

Filename C:\BackUP_Asus- FREE\rip\Papa Roach – Who Do You Trust (2019)(FLAC)\03 Not the Only One.wav

Peak level 100.0 %
Extraction speed 2.8 X
Track quality 100.0 %
Test CRC 04A8FE22
Copy CRC 04A8FE22
Track not present in AccurateRip database
Copy OK

Track 4

Filename C:\BackUP_Asus- FREE\rip\Papa Roach – Who Do You Trust (2019)(FLAC)\04 Who Do You Trust.wav

Peak level 100.0 %
Extraction speed 2.9 X
Track quality 100.0 %
Test CRC 1B4A43D1
Copy CRC 1B4A43D1
Track not present in AccurateRip database
Copy OK

Track 5

Filename C:\BackUP_Asus- FREE\rip\Papa Roach – Who Do You Trust (2019)(FLAC)\05 Elevate.wav

Peak level 100.0 %
Extraction speed 3.1 X
Track quality 100.0 %
Test CRC 9933B565
Copy CRC 9933B565
Track not present in AccurateRip database
Copy OK

Track 6

Filename C:\BackUP_Asus- FREE\rip\Papa Roach – Who Do You Trust (2019)(FLAC)\06 Come Around.wav

Peak level 100.0 %
Extraction speed 3.3 X
Track quality 100.0 %
Test CRC 68FAAAAB
Copy CRC 68FAAAAB
Track not present in AccurateRip database
Copy OK

Track 7

Filename C:\BackUP_Asus- FREE\rip\Papa Roach – Who Do You Trust (2019)(FLAC)\07 Feel Like Home.wav

Peak level 100.0 %
Extraction speed 3.2 X
Track quality 100.0 %
Test CRC C0CD7627
Copy CRC C0CD7627
Track not present in AccurateRip database
Copy OK

Track 8

Filename C:\BackUP_Asus- FREE\rip\Papa Roach – Who Do You Trust (2019)(FLAC)\08 Problems.wav

Peak level 100.0 %
Extraction speed 3.5 X
Track quality 100.0 %
Test CRC CBCBAF56
Copy CRC CBCBAF56
Track not present in AccurateRip database
Copy OK

Track 9

Filename C:\BackUP_Asus- FREE\rip\Papa Roach – Who Do You Trust (2019)(FLAC)\09 Top of the World.wav

Peak level 100.0 %
Extraction speed 3.6 X
Track quality 100.0 %
Test CRC 3317101E
Copy CRC 3317101E
Track not present in AccurateRip database
Copy OK

Track 10

Filename C:\BackUP_Asus- FREE\rip\Papa Roach – Who Do You Trust (2019)(FLAC)\10 I Suffer Well.wav

Peak level 100.0 %
Extraction speed 1.6 X
Track quality 99.8 %
Test CRC A3B13134
Copy CRC A3B13134
Track not present in AccurateRip database
Copy OK

Track 11

Filename C:\BackUP_Asus- FREE\rip\Papa Roach – Who Do You Trust (2019)(FLAC)\11 Maniac.wav

Peak level 100.0 %
Extraction speed 3.8 X
Track quality 100.0 %
Test CRC EC83A621
Copy CRC EC83A621
Track not present in AccurateRip database
Copy OK

Track 12

Filename C:\BackUP_Asus- FREE\rip\Papa Roach – Who Do You Trust (2019)(FLAC)\12 Better Than Life.wav

Peak level 100.0 %
Extraction speed 2.8 X
Track quality 99.9 %
Test CRC 8C86ACE1
Copy CRC 8C86ACE1
Track not present in AccurateRip database
Copy OK

None of the tracks are present in the AccurateRip database

No errors occurred

End of status report

—- CUETools DB Plugin V2.1.6

[CTDB TOCID: gpWLsUZgUM26jMwESf7ej7skap0-] found
Submit result: gpWLsUZgUM26jMwESf7ej7skap0- has been confirmed
Track | CTDB Status
1 | (45/45) Accurately ripped
2 | (45/45) Accurately ripped
3 | (45/45) Accurately ripped
4 | (45/45) Accurately ripped
5 | (45/45) Accurately ripped
6 | (45/45) Accurately ripped
7 | (44/45) Accurately ripped
8 | (45/45) Accurately ripped
9 | (45/45) Accurately ripped
10 | (45/45) Accurately ripped
11 | (45/45) Accurately ripped
12 | (45/45) Accurately ripped

==== Log checksum 2496D9487740A67CD8833B76C60060F2825AD3DB12A1088A1A082723DB53BF56 ====

REM DATE 2019
REM DISCID 7509050C
REM COMMENT “ExactAudioCopy v1.3”
PERFORMER “Papa Roach”
TITLE “Who Do You Trust?”
REM COMPOSER “”
FILE “01 The Ending.wav” WAVE
TRACK 01 AUDIO
TITLE “The Ending”
PERFORMER “Papa Roach”
REM COMPOSER “”
INDEX 01 00:00:00
FILE “02 Renegade Music.wav” WAVE
TRACK 02 AUDIO
TITLE “Renegade Music”
PERFORMER “Papa Roach”
REM COMPOSER “”
INDEX 01 00:00:00
FILE “03 Not the Only One.wav” WAVE
TRACK 03 AUDIO
TITLE “Not the Only One”
PERFORMER “Papa Roach”
REM COMPOSER “”
INDEX 01 00:00:00
FILE “04 Who Do You Trust.wav” WAVE
TRACK 04 AUDIO
TITLE “Who Do You Trust?”
PERFORMER “Papa Roach”
REM COMPOSER “”
INDEX 01 00:00:00
FILE “05 Elevate.wav” WAVE
TRACK 05 AUDIO
TITLE “Elevate”
PERFORMER “Papa Roach”
REM COMPOSER “”
INDEX 01 00:00:00
FILE “06 Come Around.wav” WAVE
TRACK 06 AUDIO
TITLE “Come Around”
PERFORMER “Papa Roach”
REM COMPOSER “”
INDEX 01 00:00:00
FILE “07 Feel Like Home.wav” WAVE
TRACK 07 AUDIO
TITLE “Feel Like Home”
PERFORMER “Papa Roach”
REM COMPOSER “”
INDEX 01 00:00:00
FILE “08 Problems.wav” WAVE
TRACK 08 AUDIO
TITLE “Problems”
PERFORMER “Papa Roach”
REM COMPOSER “”
INDEX 01 00:00:00
FILE “09 Top of the World.wav” WAVE
TRACK 09 AUDIO
TITLE “Top of the World”
PERFORMER “Papa Roach”
REM COMPOSER “”
INDEX 01 00:00:00
FILE “10 I Suffer Well.wav” WAVE
TRACK 10 AUDIO
TITLE “I Suffer Well”
PERFORMER “Papa Roach”
REM COMPOSER “”
INDEX 01 00:00:00
FILE “11 Maniac.wav” WAVE
TRACK 11 AUDIO
TITLE “Maniac”
PERFORMER “Papa Roach”
REM COMPOSER “”
INDEX 01 00:00:00
FILE “12 Better Than Life.wav” WAVE
TRACK 12 AUDIO
TITLE “Better Than Life”
PERFORMER “Papa Roach”
REM COMPOSER “”
INDEX 01 00:00:00

Leave a Reply

Your email address will not be published. Required fields are marked *

Enter the text from the image below
 

This site uses Akismet to reduce spam. Learn how your comment data is processed.