Papa Roach – Time For Annihilation – On The Record & On The Road




Artist: Papa Roach
Year: 2010
Genre: Rock
Notes: Discogs
Add. Notes:
Encoder: FLAC
Bitrate: ~1000 kBit/s (VBR)
Size: 443 MB
Password: “slam” (without ” “)


Tracklist:

Burn 3:26
One Track Mind 3:26
Kick In The Teeth 3:12
No Matter What 3:33
The Enemy 3:38
Getting Away With Murder (Live) 
4:14
...To Be Loved (Live) 3:55
Lifeline (Live) 4:19
Scars (Live) 4:59
Hollywood Whore (Live) 4:08
Time Is Running Out (Live) 3:57
Forever (Live) 6:50
Between Angels And Insects (Live) 
5:09
Last Resort (Live) 5:39

EAC-Log, CUE-Sheed & NFO:

Click to open spoiler
Exact Audio Copy V0.99 prebeta 4 from 23. January 2008

Отчёт EAC об извлечении, выполненном 31. августа 2010, 21:17

Papa Roach / Time For Annihilation…On The Record & On The Road

Дисковод: PLEXTOR DVDR PX-880SA Adapter: 1 ID: 1

Режим чтения : Достоверность
Использование точного потока : Да
Отключение кэша аудио : Да
Использование указателей C2 : Нет

Коррекция смещения при чтении : 6
Способность читать области Lead-in и Lead-out : Нет
Заполнение пропущенных сэмплов тишиной : Да
Удаление блоков с тишиной в начале и конце : Нет
При вычислениях CRC использовались нулевые сэмплы : Да
Интерфейс : Установленный внешний ASPI-интерфейс

Выходной формат : Пользовательский кодировщик
Выбранный битрейт : 1024 kBit/s
Качество : Высокий
Добавление ID3-тэга : Нет
Утилита сжатия : C:\Program Files\Exact Audio Copy\FLAC\FLAC.EXE
Дополнительные параметры : -5 -V -T “ARTIST=%a” -T “TITLE=%t” -T “ALBUM=%g” -T “DATE=%y” -T “TRACKNUMBER=%n” -T “GENRE=%m” -T “COMMENT=%e” %s -o %d

TOC извлечённого CD

Трек | Старт | Длительность | Начальный сектор | Конечный сектор
———————————————————————
1 | 0:00.00 | 3:25.56 | 0 | 15430
2 | 3:25.56 | 3:25.65 | 15431 | 30870
3 | 6:51.46 | 3:11.34 | 30871 | 45229
4 | 10:03.05 | 3:33.06 | 45230 | 61210
5 | 13:36.11 | 3:38.11 | 61211 | 77571
6 | 17:14.22 | 4:13.64 | 77572 | 96610
7 | 21:28.11 | 3:55.00 | 96611 | 114235
8 | 25:23.11 | 4:18.34 | 114236 | 133619
9 | 29:41.45 | 4:59.05 | 133620 | 156049
10 | 34:40.50 | 4:07.42 | 156050 | 174616
11 | 38:48.17 | 3:56.59 | 174617 | 192375
12 | 42:45.01 | 6:49.43 | 192376 | 223093
13 | 49:34.44 | 5:08.49 | 223094 | 246242
14 | 54:43.18 | 5:39.08 | 246243 | 271675

Характеристики диапазона извлечения и сообщения об ошибках

Выбранный диапазон

Имя файла I:\BitComet\Papa Roach – Time For Annihilation – On the Record & On the Road-2010(flac)\Time For Annihilation – On the Record & On the Road-2010\Papa Roach – Time For Annihilation…On The Record & On The Road.wav

Пиковый уровень 100.0 %
Качество диапазона 100.0 %
CRC копии EDB4B1F4
Копирование… OK

Ошибок не произошло

AccurateRip: сводка

Трек 1 нет в базе данных
Трек 2 нет в базе данных
Трек 3 нет в базе данных
Трек 4 нет в базе данных
Трек 5 нет в базе данных
Трек 6 нет в базе данных
Трек 7 нет в базе данных
Трек 8 нет в базе данных
Трек 9 нет в базе данных
Трек 10 нет в базе данных
Трек 11 нет в базе данных
Трек 12 нет в базе данных
Трек 13 нет в базе данных
Трек 14 нет в базе данных

Ни одного трека нет в базе AccurateRip

Конец отчёта

Leave a Reply

Your email address will not be published. Required fields are marked *

This site uses Akismet to reduce spam. Learn how your comment data is processed.