Papa Roach – The Paramour Sessions (Japanese Edition)




Artist: Papa Roach
Year: 2012
Genre: Metal
Notes: Discogs
Add. Notes: Japanese Edition
Cover incl.: Yes
Encoder: FLAC
Bitrate: ~1000 kBit/s (44.1 kHz/16 Bit/s)
Log & Cue incl.: Yes
Size: 427,22 MB
Password: “slam” (without ” “)


All Downloads/Hosters are compatible

Download 1
Turbobit.net
Rapidgator.net
KatFile.com
UploadRar.com
Download 2
Turbobit.net
Rapidgator.net
KatFile.com
UploadRar.com

Tracklist:

1 - ... To Be Loved - 3:02
2 - Alive ( N' Out Of Control ) - 3:22
3 - Crash - 3:21
4 - The World Around You - 4:35
5 - Forever - 4:06
6 - I Devise My Own Demise - 3:36
7 - Time Is Running Out - 3:23
8 - What Do You Do ? - 4:22
9 - My Heart Is A Fist - 4:58
10 - No More Secrets - 3:15
11 - Reckless - 3:34
12 - The Fire - 3:32
13 - Roses On My Grave - 3:13
14 - Scars ( Live & Murderous In Chicago - Bonus) - 3:38
Bonus Tracks
15 - SOS - 2:44
16 - The Addict - 3:29

EAC-Log, CUE-Sheed & NFO:

Click to open spoiler
Exact Audio Copy V0.99 prebeta 4 from 23. January 2008

EAC extraction logfile from 21. June 2008, 12:43

Papa Roach / The Paramour Sessions

Used drive : _NEC DVD_RW ND-3540A Adapter: 0 ID: 0

Read mode : Secure
Utilize accurate stream : Yes
Defeat audio cache : Yes
Make use of C2 pointers : No

Read offset correction : 48
Overread into Lead-In and Lead-Out : No
Fill up missing offset samples with silence : Yes
Delete leading and trailing silent blocks : No
Null samples used in CRC calculations : Yes
Used interface : Native Win32 interface for Win NT & 2000

Used output format : Internal WAV Routines
Sample format : 44.100 Hz; 16 Bit; Stereo

TOC of the extracted CD

Track | Start | Length | Start sector | End sector
———————————————————
1 | 0:00.00 | 3:02.09 | 0 | 13658
2 | 3:02.09 | 3:22.10 | 13659 | 28818
3 | 6:24.19 | 3:21.72 | 28819 | 43965
4 | 9:46.16 | 4:35.25 | 43966 | 64615
5 | 14:21.41 | 4:06.25 | 64616 | 83090
6 | 18:27.66 | 3:36.17 | 83091 | 99307
7 | 22:04.08 | 3:23.31 | 99308 | 114563
8 | 25:27.39 | 4:22.25 | 114564 | 134238
9 | 29:49.64 | 4:58.52 | 134239 | 156640
10 | 34:48.41 | 3:15.19 | 156641 | 171284
11 | 38:03.60 | 3:34.15 | 171285 | 187349
12 | 41:38.00 | 3:32.48 | 187350 | 203297
13 | 45:10.48 | 3:13.65 | 203298 | 217837
14 | 48:24.38 | 3:38.37 | 217838 | 234224
15 | 52:03.00 | 2:43.51 | 234225 | 246500
16 | 54:46.51 | 3:25.49 | 246501 | 261924

Range status and errors

Selected range

Filename G:\PAPA ROACH\2006 – The Paramour Sessions.wav

Peak level 100.0 %
Range quality 99.9 %
Test CRC 32C4F54E
Copy CRC 32C4F54E
Copy OK

No errors occurred

AccurateRip summary

Track 1 accurately ripped (confidence 1) [1A502203]
Track 2 accurately ripped (confidence 1) [8F0B603C]
Track 3 accurately ripped (confidence 1) [D0108BF3]
Track 4 accurately ripped (confidence 1) [AD7C0DB7]
Track 5 accurately ripped (confidence 1) [6E24B0C9]
Track 6 accurately ripped (confidence 1) [CA3CFB19]
Track 7 accurately ripped (confidence 1) [AFB12C78]
Track 8 accurately ripped (confidence 1) [39E9B3BF]
Track 9 accurately ripped (confidence 1) [0373173C]
Track 10 accurately ripped (confidence 1) [B2C99843]
Track 11 accurately ripped (confidence 1) [48C620FD]
Track 12 accurately ripped (confidence 1) [9B267475]
Track 13 accurately ripped (confidence 1) [324469B3]
Track 14 accurately ripped (confidence 1) [3E7D2B01]
Track 15 accurately ripped (confidence 1) [84256AFC]
Track 16 accurately ripped (confidence 1) [7917FD16]

All tracks accurately ripped

End of status report

REM GENRE Alternative Metal
REM DATE 2006
CATALOG 0602517062320
PERFORMER “Papa Roach”
TITLE “The Paramour Sessions”
FILE “2006 – The Paramour Sessions.flac” WAVE
TRACK 01 AUDIO
TITLE “… To Be Loved”
ISRC USUM70605315
INDEX 01 00:00:00
TRACK 02 AUDIO
TITLE “Alive [N’ Out Of Control]”
ISRC USUM70605345
INDEX 01 03:02:09
TRACK 03 AUDIO
TITLE “Crash”
ISRC USUM70605346
INDEX 01 06:24:19
TRACK 04 AUDIO
TITLE “The World Around You”
ISRC USUM70605354
INDEX 01 09:46:16
TRACK 05 AUDIO
TITLE “Forever”
ISRC USUM70605348
INDEX 01 14:21:41
TRACK 06 AUDIO
TITLE “I Devise My Own Demise”
ISRC USUM70605349
INDEX 01 18:27:66
TRACK 07 AUDIO
TITLE “Time Is Running Out”
ISRC USUM70605355
INDEX 01 22:04:08
TRACK 08 AUDIO
TITLE “What Do You Do?”
ISRC USUM70605356
INDEX 01 25:27:39
TRACK 09 AUDIO
TITLE “My Heart Is A Fist”
ISRC USUM70605350
INDEX 01 29:49:64
TRACK 10 AUDIO
TITLE “No More Secrets”
ISRC USUM70605351
INDEX 01 34:48:41
TRACK 11 AUDIO
TITLE “Reckless”
ISRC USUM70605352
INDEX 01 38:03:60
TRACK 12 AUDIO
TITLE “The Fire”
ISRC USUM70605347
INDEX 01 41:38:00
TRACK 13 AUDIO
TITLE “Roses On My Grave”
ISRC USUM70605353
INDEX 00 45:07:02
INDEX 01 45:10:48
TRACK 14 AUDIO
TITLE “Scars [Live & Murderous In Chicago]”
ISRC USUM70607681
INDEX 00 48:24:02
INDEX 01 48:24:38
TRACK 15 AUDIO
TITLE “SOS”
ISRC USUM70607685
INDEX 01 52:03:00
TRACK 16 AUDIO
TITLE “The Addict”
ISRC USUM70607682
INDEX 00 54:45:53
INDEX 01 54:46:51


Leave a Reply

Your email address will not be published. Required fields are marked *

This site uses Akismet to reduce spam. Learn how your comment data is processed.