Papa Roach – The Connection




Artist: Papa Roach
Year: 2012
Genre: Punk
Notes: Discogs
Add. Notes: Deluxe Edition
Encoder: FLAC
Bitrate: ~1000 kBit/s (VBR)
Size: 366,84 MB
Hoster: Share-Online
Password: “slam” (without ” “)


Tracklist:

1 Engage 0:51
2 Still Swingin 3:24
3 Where Did The Angels Go? 3:10
4 Silence Is The Enemy 2:53
5 Before I Die 4:25
6 Wish You Never Met Me 4:05
7 Give Me Back My Life 3:58
8 Breathe You In 3:07
9 Leader Of The Broken Hearts 4:12
10 Not That Beautiful 3:18
11 Walking Dead 3:18
12 Won't Let Up 4:00
13 As Far As I Remember 3:42
Bonus Tracks:
14 What's Left For Me 2:58
15 9Th Life 3:12

Click to open spoiler
Exact Audio Copy V1.0 beta 3 from 29. August 2011

EAC extraction logfile from 27. September 2012, 14:31

Papa Roach / The Connection

Used drive : PLDS DVD-ROM DH-16D2S Adapter: 2 ID: 0

Read mode : Secure
Utilize accurate stream : Yes
Defeat audio cache : Yes
Make use of C2 pointers : No

Read offset correction : 6
Overread into Lead-In and Lead-Out : No
Fill up missing offset samples with silence : Yes
Delete leading and trailing silent blocks : No
Null samples used in CRC calculations : Yes
Used interface : Native Win32 interface for Win NT & 2000
Gap handling : Appended to previous track

Used output format : User Defined Encoder
Selected bitrate : 1024 kBit/s
Quality : High
Add ID3 tag : No
Command line compressor : C:\Program Files\Exact Audio Copy\FLAC 1.2.1\flac.exe
Additional command line options : -8 -V %source%

TOC of the extracted CD

Track | Start | Length | Start sector | End sector
———————————————————
1 | 0:00.00 | 0:51.60 | 0 | 3884
2 | 0:51.60 | 3:23.23 | 3885 | 19132
3 | 4:15.08 | 3:10.09 | 19133 | 33391
4 | 7:25.17 | 2:53.20 | 33392 | 46386
5 | 10:18.37 | 4:25.05 | 46387 | 66266
6 | 14:43.42 | 4:05.63 | 66267 | 84704
7 | 18:49.30 | 3:58.54 | 84705 | 102608
8 | 22:48.09 | 3:07.56 | 102609 | 116689
9 | 25:55.65 | 4:12.63 | 116690 | 135652
10 | 30:08.53 | 3:18.14 | 135653 | 150516
11 | 33:26.67 | 3:18.14 | 150517 | 165380
12 | 36:45.06 | 4:00.15 | 165381 | 183395
13 | 40:45.21 | 3:42.51 | 183396 | 200096
14 | 44:27.72 | 2:58.43 | 200097 | 213489
15 | 47:26.40 | 3:12.45 | 213490 | 227934

Track 1

Filename E:\FiH\Papa_Roach-The_Connection-CD-FLAC-2012-FiH\01-Papa_Roach-Engage.wav

Pre-gap length 0:00:02.00

Peak level 43.3 %
Extraction speed 0.8 X
Track quality 99.7 %
Test CRC 858ABF64
Copy CRC 858ABF64
Track not present in AccurateRip database
Copy OK

Track 2

Filename E:\FiH\Papa_Roach-The_Connection-CD-FLAC-2012-FiH\02-Papa_Roach-Still_Swingin.wav

Peak level 92.9 %
Extraction speed 1.8 X
Track quality 100.0 %
Test CRC 7675A485
Copy CRC 7675A485
Track not present in AccurateRip database
Copy OK

Track 3

Filename E:\FiH\Papa_Roach-The_Connection-CD-FLAC-2012-FiH\03-Papa_Roach-Where_Did_The_Angels_Go.wav

Pre-gap length 0:00:00.14

Peak level 97.7 %
Extraction speed 2.0 X
Track quality 100.0 %
Test CRC 7D8028A5
Copy CRC 7D8028A5
Track not present in AccurateRip database
Copy OK

Track 4

Filename E:\FiH\Papa_Roach-The_Connection-CD-FLAC-2012-FiH\04-Papa_Roach-Silence_Is_The_Enemy.wav

Pre-gap length 0:00:00.34

Peak level 96.3 %
Extraction speed 1.8 X
Track quality 99.9 %
Test CRC 9C1E04E0
Copy CRC 9C1E04E0
Track not present in AccurateRip database
Copy OK

Track 5

Filename E:\FiH\Papa_Roach-The_Connection-CD-FLAC-2012-FiH\05-Papa_Roach-Before_I_Die.wav

Pre-gap length 0:00:00.69

Peak level 95.0 %
Extraction speed 2.4 X
Track quality 100.0 %
Test CRC A38C3418
Copy CRC A38C3418
Track not present in AccurateRip database
Copy OK

Track 6

Filename E:\FiH\Papa_Roach-The_Connection-CD-FLAC-2012-FiH\06-Papa_Roach-Wish_You_Never_Met_Me.wav

Pre-gap length 0:00:01.09

Peak level 90.9 %
Extraction speed 2.6 X
Track quality 100.0 %
Test CRC 07245246
Copy CRC 07245246
Track not present in AccurateRip database
Copy OK

Track 7

Filename E:\FiH\Papa_Roach-The_Connection-CD-FLAC-2012-FiH\07-Papa_Roach-Give_Me_Back_My_Life.wav

Pre-gap length 0:00:01.14

Peak level 97.7 %
Extraction speed 2.4 X
Track quality 99.9 %
Test CRC 96F8DB5A
Copy CRC 96F8DB5A
Track not present in AccurateRip database
Copy OK

Track 8

Filename E:\FiH\Papa_Roach-The_Connection-CD-FLAC-2012-FiH\08-Papa_Roach-Breathe_You_In.wav

Peak level 95.4 %
Extraction speed 2.7 X
Track quality 100.0 %
Test CRC 23C72FD1
Copy CRC 23C72FD1
Track not present in AccurateRip database
Copy OK

Track 9

Filename E:\FiH\Papa_Roach-The_Connection-CD-FLAC-2012-FiH\09-Papa_Roach-Leader_Of_The_Broken_Hearts.wav

Pre-gap length 0:00:00.60

Peak level 97.7 %
Extraction speed 3.0 X
Track quality 100.0 %
Test CRC 8CD30E2D
Copy CRC 8CD30E2D
Track not present in AccurateRip database
Copy OK

Track 10

Filename E:\FiH\Papa_Roach-The_Connection-CD-FLAC-2012-FiH\10-Papa_Roach-Not_That_Beautiful.wav

Peak level 97.7 %
Extraction speed 2.6 X
Track quality 99.9 %
Test CRC B16D90FB
Copy CRC B16D90FB
Track not present in AccurateRip database
Copy OK

Track 11

Filename E:\FiH\Papa_Roach-The_Connection-CD-FLAC-2012-FiH\11-Papa_Roach-Walking_Dead.wav

Pre-gap length 0:00:01.54

Peak level 97.7 %
Extraction speed 2.7 X
Track quality 99.9 %
Test CRC 7DAF5F5C
Copy CRC 7DAF5F5C
Track not present in AccurateRip database
Copy OK

Track 12

Filename E:\FiH\Papa_Roach-The_Connection-CD-FLAC-2012-FiH\12-Papa_Roach-Won’t_Let_Up.wav

Pre-gap length 0:00:00.53

Peak level 97.7 %
Extraction speed 3.3 X
Track quality 100.0 %
Test CRC 500FFE96
Copy CRC 500FFE96
Track not present in AccurateRip database
Copy OK

Track 13

Filename E:\FiH\Papa_Roach-The_Connection-CD-FLAC-2012-FiH\13-Papa_Roach-As_Far_As_I_Remember.wav

Pre-gap length 0:00:00.34

Peak level 97.7 %
Extraction speed 3.3 X
Track quality 100.0 %
Test CRC 152EA68D
Copy CRC 152EA68D
Track not present in AccurateRip database
Copy OK

Track 14

Filename E:\FiH\Papa_Roach-The_Connection-CD-FLAC-2012-FiH\14-Papa_Roach-What’s_Left_Of_Me.wav

Pre-gap length 0:00:00.62

Peak level 97.7 %
Extraction speed 3.3 X
Track quality 100.0 %
Test CRC EE33D4BD
Copy CRC EE33D4BD
Track not present in AccurateRip database
Copy OK

Track 15

Filename E:\FiH\Papa_Roach-The_Connection-CD-FLAC-2012-FiH\15-Papa_Roach-9th_Life.wav

Pre-gap length 0:00:00.94

Peak level 97.7 %
Extraction speed 3.5 X
Track quality 100.0 %
Test CRC F27D0E0B
Copy CRC F27D0E0B
Track not present in AccurateRip database
Copy OK

None of the tracks are present in the AccurateRip database

No errors occurred

End of status report

==== Log checksum 154F376E653524E2A8442865A53D63E2E3FD7BB62CC78659C08705DC79446C4D ====

REM GENRE Alternative Metal
REM DATE 2012
CATALOG 0846070066726
PERFORMER “Papa Roach”
TITLE “The Connection”
FILE “01 – Engage.flac” WAVE
TRACK 01 AUDIO
TITLE “Engage”
PERFORMER “Papa Roach”
ISRC USDPK1266002
INDEX 01 00:00:00
FILE “02 – Still Swingin.flac” WAVE
TRACK 02 AUDIO
TITLE “Still Swingin”
PERFORMER “Papa Roach”
ISRC USDPK1266003
INDEX 01 00:00:00
TRACK 03 AUDIO
TITLE “Where Did The Angels Go”
PERFORMER “Papa Roach”
ISRC USDPK1266004
INDEX 00 03:23:12
FILE “03 – Where Did The Angels Go.flac” WAVE
INDEX 01 00:00:00
TRACK 04 AUDIO
TITLE “Silence Is The Enemy”
PERFORMER “Papa Roach”
ISRC USDPK1266005
INDEX 00 03:09:58
FILE “04 – Silence Is The Enemy.flac” WAVE
INDEX 01 00:00:00
TRACK 05 AUDIO
TITLE “Before I Die”
PERFORMER “Papa Roach”
ISRC USDPK1266006
INDEX 00 02:52:43
FILE “05 – Before I Die.flac” WAVE
INDEX 01 00:00:00
TRACK 06 AUDIO
TITLE “Wish You Never Met Me”
PERFORMER “Papa Roach”
ISRC USDPK1266007
INDEX 00 04:23:73
FILE “06 – Wish You Never Met Me.flac” WAVE
INDEX 01 00:00:00
TRACK 07 AUDIO
TITLE “Give Me Back My Life”
PERFORMER “Papa Roach”
ISRC USDPK1266008
INDEX 00 04:04:52
FILE “07 – Give Me Back My Life.flac” WAVE
INDEX 01 00:00:00
FILE “08 – Breathe You In.flac” WAVE
TRACK 08 AUDIO
TITLE “Breathe You In”
PERFORMER “Papa Roach”
ISRC USDPK1266009
INDEX 01 00:00:00
TRACK 09 AUDIO
TITLE “Leader Of The Broken Hearts”
PERFORMER “Papa Roach”
ISRC USDPK1266010
INDEX 00 03:07:11
FILE “09 – Leader Of The Broken Hearts.flac” WAVE
INDEX 01 00:00:00
FILE “10 – Not That Beautiful.flac” WAVE
TRACK 10 AUDIO
TITLE “Not That Beautiful”
PERFORMER “Papa Roach”
ISRC USDPK1266010
INDEX 01 00:00:00
TRACK 11 AUDIO
TITLE “Walking Dead”
PERFORMER “Papa Roach”
ISRC USDPK1266012
INDEX 00 03:16:48
FILE “11 – Walking Dead.flac” WAVE
INDEX 01 00:00:00
TRACK 12 AUDIO
TITLE “Won’t Let Up”
PERFORMER “Papa Roach”
ISRC USDPK1266013
INDEX 00 03:17:49
FILE “12 – Won’t Let Up.flac” WAVE
INDEX 01 00:00:00
TRACK 13 AUDIO
TITLE “As Far As I Remember”
PERFORMER “Papa Roach”
ISRC USDPK1266014
INDEX 00 03:59:64
FILE “13 – As Far As I Remember.flac” WAVE
INDEX 01 00:00:00
TRACK 14 AUDIO
TITLE “What’s Left Of Me”
PERFORMER “Papa Roach”
ISRC USDPK1266017
INDEX 00 03:42:04
FILE “14 – What’s Left Of Me.flac” WAVE
INDEX 01 00:00:00
TRACK 15 AUDIO
TITLE “9th Life”
PERFORMER “Papa Roach”
ISRC USDPK1266019
INDEX 00 02:57:47
FILE “15 – 9th Life.flac” WAVE
INDEX 01 00:00:00

Leave a Reply

Your email address will not be published. Required fields are marked *

This site uses Akismet to reduce spam. Learn how your comment data is processed.