Papa Roach – The Best Of Papa Roach: To Be Loved




Artist: Papa Roach
Year: 2010
Genre: Punk
Notes: Discogs
Add. Notes:
Encoder: FLAC
Bitrate: ~1000 kBit/s (VBR)
Size: 363 MB
Password: “slam” (without ” “)


Tracklist:

1 Broken Home 
2 Last Resort 
3 Time And Time Again 
4 She Loves Me Not 
5 Scars 
6 Getting Away With Murder 
7 just Go (Never Look Back) 
[Previously 
Unreleased] 
8 ...To Be Loved 
9 Reckless 
10 Had Enough (Acoustic) 
11 Forever (Live) 
12 Hollywood Whore 
13 Lifeline 
BONUS TRACK
14 Scars (Acoustic)

EAC-Log, CUE-Sheed & NFO:

Click to open spoiler
Exact Audio Copy V0.99 prebeta 4 from 23. January 2008

Отчёт EAC об извлечении, выполненном 29. июня 2010, 22:09

Papa Roach / To Be Loved – The Best Of Papa Roach

Дисковод: ATAPI iHAS424 A Adapter: 0 ID: 0

Режим чтения : Достоверность
Использование точного потока : Да
Отключение кэша аудио : Да
Использование указателей C2 : Нет

Коррекция смещения при чтении : 6
Способность читать области Lead-in и Lead-out : Нет
Заполнение пропущенных сэмплов тишиной : Да
Удаление блоков с тишиной в начале и конце : Нет
При вычислениях CRC использовались нулевые сэмплы : Да
Интерфейс : Установленный внешний ASPI-интерфейс

Выходной формат : Пользовательский кодировщик
Выбранный битрейт : 1024 kBit/s
Качество : Высокий
Добавление ID3-тэга : Нет
Утилита сжатия : C:\Program Files\Exact Audio Copy\FLAC\FLAC.EXE
Дополнительные параметры : -6 -V -T “ARTIST=%a” -T “TITLE=%t” -T “ALBUM=%g” -T “DATE=%y” -T “TRACKNUMBER=%n” -T “GENRE=%m” -T “COMMENT=%e” %s -o %d

TOC извлечённого CD

Трек | Старт | Длительность | Начальный сектор | Конечный сектор
———————————————————————
1 | 0:00.00 | 3:42.09 | 0 | 16658
2 | 3:42.09 | 3:20.36 | 16659 | 31694
3 | 7:02.45 | 2:58.73 | 31695 | 45117
4 | 10:01.43 | 3:31.26 | 45118 | 60968
5 | 13:32.69 | 3:28.16 | 60969 | 76584
6 | 17:01.10 | 3:10.46 | 76585 | 90880
7 | 20:11.56 | 2:56.22 | 90881 | 104102
8 | 23:08.03 | 3:01.28 | 104103 | 117705
9 | 26:09.31 | 3:33.12 | 117706 | 133692
10 | 29:42.43 | 4:14.30 | 133693 | 152772
11 | 33:56.73 | 3:38.36 | 152773 | 169158
12 | 37:35.34 | 3:55.57 | 169159 | 186840
13 | 41:31.16 | 4:28.23 | 186841 | 206963
14 | 45:59.39 | 3:10.73 | 206964 | 221286

Характеристики диапазона извлечения и сообщения об ошибках

Выбранный диапазон

Имя файла I:\BitComet\Papa Roach(flac)\To Be Loved – The Best Of Papa Roach\Papa Roach – To Be Loved – The Best Of Papa Roach.wav

Пиковый уровень 100.0 %
Качество диапазона 100.0 %
CRC копии 45D87B78
Копирование… OK

Ошибок не произошло

AccurateRip: сводка

Трек 1 нет в базе данных
Трек 2 нет в базе данных
Трек 3 нет в базе данных
Трек 4 нет в базе данных
Трек 5 нет в базе данных
Трек 6 нет в базе данных
Трек 7 нет в базе данных
Трек 8 нет в базе данных
Трек 9 нет в базе данных
Трек 10 нет в базе данных
Трек 11 нет в базе данных
Трек 12 нет в базе данных
Трек 13 нет в базе данных
Трек 14 нет в базе данных

Ни одного трека нет в базе AccurateRip

Конец отчёта

Leave a Reply

Your email address will not be published. Required fields are marked *

This site uses Akismet to reduce spam. Learn how your comment data is processed.