Papa Roach – Metamorphosis




Artist: Papa Roach
Year: 2009
Genre: Punk
Notes: Discogs
Add. Notes: Japanese Edition
Encoder: FLAC
Bitrate: ~1100 kBit/s (VBR)
Size: 422,3 MB
Hoster: Share-Online
Password: “slam” (without ” “)


Tracklist:

1. Days Оf War 1:32
2. Change Or Die 3:13
3. Hollywood Whore 3:56
4. I Almost Told You That I Loved You 3:10
5. Lifeline 4:07
6. Had Enough 4:02
7. Live This Down 3:35
8. March Out Of The Darkness 4:25
9. Into The Light 3:28
10. Carry Me 4:27
11. Nights Of Love 5:19
12. State Of Emergency 5:07
13. She Loves Me Not (Live & Murderous In 
Chicago) 
14. Broken Home (Live & Murderous In Chicago)
15. Last Resort [Live & Murderous In Chicago]

Click to open spoiler
Exact Audio Copy V1.0 beta 1 from 15. November 2010

EAC extraction logfile from 16. April 2011, 19:20

Papa Roach / Metamorphosis

Used drive : TSSTcorpCD/DVDW SH-S182D Adapter: 0 ID: 1

Read mode : Secure
Utilize accurate stream : Yes
Defeat audio cache : Yes
Make use of C2 pointers : No

Read offset correction : 6
Overread into Lead-In and Lead-Out : No
Fill up missing offset samples with silence : Yes
Delete leading and trailing silent blocks : No
Null samples used in CRC calculations : Yes
Used interface : Installed external ASPI interface

Used output format : User Defined Encoder
Selected bitrate : 1024 kBit/s
Quality : High
Add ID3 tag : No
Command line compressor : C:\Program Files\Exact Audio Copy\Flac\flac.exe
Additional command line options : -8 -V %s

TOC of the extracted CD

Track | Start | Length | Start sector | End sector
———————————————————
1 | 0:00.00 | 1:25.10 | 0 | 6384
2 | 1:25.10 | 3:19.30 | 6385 | 21339
3 | 4:44.40 | 3:54.37 | 21340 | 38926
4 | 8:39.02 | 3:11.57 | 38927 | 53308
5 | 11:50.59 | 4:17.41 | 53309 | 72624
6 | 16:08.25 | 4:01.71 | 72625 | 90770
7 | 20:10.21 | 3:36.00 | 90771 | 106970
8 | 23:46.21 | 4:22.05 | 106971 | 126625
9 | 28:08.26 | 3:27.71 | 126626 | 142221
10 | 31:36.22 | 4:26.03 | 142222 | 162174
11 | 36:02.25 | 5:16.05 | 162175 | 185879
12 | 41:18.30 | 5:07.60 | 185880 | 208964
13 | 46:26.15 | 3:46.13 | 208965 | 225927
14 | 50:12.28 | 3:48.46 | 225928 | 243073
15 | 54:00.74 | 4:15.30 | 243074 | 262228

Range status and errors

Selected range

Filename D:\Музыка\собственные CD\Papa Roach Metamorphosis\Papa Roach – Metamorphosis.wav

Peak level 100.0 %
Extraction speed 0.5 X
Range quality 99.9 %
Copy CRC 8066D82D
Copy OK

No errors occurred

AccurateRip summary

Track 1 accurately ripped (confidence 3) [9BB4F5E2]
Track 2 accurately ripped (confidence 3) [C46129C4]
Track 3 accurately ripped (confidence 3) [18E89071]
Track 4 accurately ripped (confidence 3) [FC3C5F62]
Track 5 accurately ripped (confidence 3) [F9AE2A34]
Track 6 accurately ripped (confidence 3) [2EC69166]
Track 7 accurately ripped (confidence 3) [58126957]
Track 8 accurately ripped (confidence 3) [84523A4C]
Track 9 accurately ripped (confidence 3) [BCB9EB91]
Track 10 accurately ripped (confidence 3) [6F6146F3]
Track 11 accurately ripped (confidence 3) [2EBD0E61]
Track 12 accurately ripped (confidence 3) [4187E29C]
Track 13 accurately ripped (confidence 3) [89F54E05]
Track 14 accurately ripped (confidence 3) [D63C75DD]
Track 15 accurately ripped (confidence 3) [F1052711]

All tracks accurately ripped

End of status report

———————–

REM GENRE Alternative Metal
REM DATE 2009
PERFORMER “Papa Roach”
TITLE “Metamorphosis”
FILE “2009 – Metamorphosis.flac” WAVE
TRACK 01 AUDIO
TITLE “Days Of War”
INDEX 01 00:00:00
TRACK 02 AUDIO
TITLE “Change Or Die”
INDEX 01 01:25:10
TRACK 03 AUDIO
TITLE “Hollywood Whore”
INDEX 01 04:44:40
TRACK 04 AUDIO
TITLE “I Almost Told You That I Loved You”
INDEX 01 08:39:02
TRACK 05 AUDIO
TITLE “Lifeline”
INDEX 01 11:50:59
TRACK 06 AUDIO
TITLE “Had Enough”
INDEX 01 16:08:25
TRACK 07 AUDIO
TITLE “Live This Down”
INDEX 01 20:10:21
TRACK 08 AUDIO
TITLE “March Out Of The Darkness”
INDEX 01 23:46:21
TRACK 09 AUDIO
TITLE “Into The Light”
INDEX 01 28:08:26
TRACK 10 AUDIO
TITLE “Carry Me”
INDEX 01 31:36:22
TRACK 11 AUDIO
TITLE “Nights Of Love”
INDEX 01 36:02:25
TRACK 12 AUDIO
TITLE “State Of Emergency”
INDEX 01 41:18:30
TRACK 13 AUDIO
TITLE “She Loves Me Not [Live & Murderous In Chicago]”
INDEX 00 46:25:15
INDEX 01 46:26:15
TRACK 14 AUDIO
TITLE “Broken Home [Live & Murderous In Chicago]”
INDEX 00 50:11:28
INDEX 01 50:12:28
TRACK 15 AUDIO
TITLE “Last Resort [Live & Murderous In Chicago]”
INDEX 00 53:59:73
INDEX 01 54:00:74

==== Log checksum 6AAE1604171692CCFDA62F9C96A86EE6C97ACEE4FCB4F01533CBD4DD658F0125 ====

Leave a Reply

Your email address will not be published. Required fields are marked *

Enter the text from the image below
 

This site uses Akismet to reduce spam. Learn how your comment data is processed.